<?xml version="1.0" standalone="no"?>
<!DOCTYPE svg PUBLIC "-//W3C//DTD SVG 1.1//EN" "http://www.w3.org/Graphics/SVG/1.1/DTD/svg11.dtd" >
<svg xmlns="http://www.w3.org/2000/svg">
<metadata>Generated by IcoMoon</metadata>
<defs>
<font id="Material-Icons" horiz-adv-x="1024">
<font-face units-per-em="1024" ascent="960" descent="-64" />
<missing-glyph horiz-adv-x="1024" />
<glyph unicode="&#x20;" horiz-adv-x="512" d="" />
<glyph unicode="&#xe900;" glyph-name="baseline-mail_outline-24px" d="M853.333 768h-682.667c-46.933 0-84.907-38.4-84.907-85.333l-0.427-512c0-46.933 38.4-85.333 85.333-85.333h682.667c46.933 0 85.333 38.4 85.333 85.333v512c0 46.933-38.4 85.333-85.333 85.333zM853.333 170.667h-682.667v426.667l341.333-213.333 341.333 213.333v-426.667zM512 469.334l-341.333 213.333h682.667l-341.333-213.333z" />
<glyph unicode="&#xe901;" glyph-name="baseline-notifications_none-24px" d="M512-0c46.933 0 85.333 38.4 85.333 85.333h-170.667c0-46.933 38.4-85.333 85.333-85.333zM768 256v213.333c0 130.987-69.547 240.64-192 269.653v29.013c0 35.413-28.587 64-64 64s-64-28.587-64-64v-29.013c-122.027-29.013-192-138.24-192-269.653v-213.333l-85.333-85.333v-42.667h682.667v42.667l-85.333 85.333zM682.667 213.334h-341.333v256c0 105.813 64.427 192 170.667 192s170.667-86.187 170.667-192v-256z" />
<glyph unicode="&#xe902;" glyph-name="baseline-star_border-24px" d="M938.667 544.427l-306.773 26.453-119.893 282.453-119.893-282.88-306.773-26.027 232.96-201.813-69.973-299.947 263.68 159.147 263.68-159.147-69.547 299.947 232.533 201.813zM512 281.6l-160.427-96.853 42.667 182.613-141.653 122.88 186.88 16.213 72.533 171.947 72.96-172.373 186.88-16.213-141.653-122.88 42.667-182.613-160.853 97.28z" />
<glyph unicode="&#xe903;" glyph-name="outline-access_alarm-24px" d="M938.667 694.614l-196.267 164.693-55.040-65.28 196.267-164.693 55.040 65.28zM336.213 794.027l-54.613 65.28-196.267-164.267 55.040-65.28 195.84 164.267zM533.333 597.334h-64v-256l202.667-121.6 32 52.48-170.667 101.12v224zM512 768c-212.053 0-384-171.947-384-384s171.52-384 384-384c212.053 0 384 171.947 384 384s-171.947 384-384 384zM512 85.334c-165.12 0-298.667 133.547-298.667 298.667s133.547 298.667 298.667 298.667 298.667-133.547 298.667-298.667-133.547-298.667-298.667-298.667z" />
<glyph unicode="&#xe904;" glyph-name="outline-access_time-24px" d="M511.573 853.334c-235.52 0-426.24-191.147-426.24-426.667s190.72-426.667 426.24-426.667c235.947 0 427.093 191.147 427.093 426.667s-191.147 426.667-427.093 426.667zM512 85.334c-188.587 0-341.333 152.747-341.333 341.333s152.747 341.333 341.333 341.333 341.333-152.747 341.333-341.333c0-188.587-152.747-341.333-341.333-341.333zM533.333 640h-64v-256l224-134.4 32 52.48-192 113.92z" />
<glyph unicode="&#xe905;" glyph-name="outline-account_balance_wallet-24px" d="M896 628.054v97.28c0 46.933-38.4 85.333-85.333 85.333h-597.333c-47.36 0-85.333-38.4-85.333-85.333v-597.333c0-46.933 37.973-85.333 85.333-85.333h597.333c46.933 0 85.333 38.4 85.333 85.333v97.28c25.173 14.933 42.667 41.813 42.667 73.387v256c0 31.573-17.493 58.453-42.667 73.387zM853.333 554.667v-256h-298.667v256h298.667zM213.333 128v597.333h597.333v-85.333h-256c-46.933 0-85.333-38.4-85.333-85.333v-256c0-46.933 38.4-85.333 85.333-85.333h256v-85.333h-597.333zM746.667 426.667c0-35.346-28.654-64-64-64s-64 28.654-64 64c0 35.346 28.654 64 64 64s64-28.654 64-64z" />
<glyph unicode="&#xe906;" glyph-name="outline-account_balance-24px" d="M277.333 512h-85.333v-298.667h85.333v298.667zM533.333 512h-85.333v-298.667h85.333v298.667zM896 128h-810.667v-85.333h810.667v85.333zM789.333 512h-85.333v-298.667h85.333v298.667zM490.667 799.574l222.293-116.907h-444.587l222.293 116.907zM490.667 896l-405.333-213.333v-85.333h810.667v85.333l-405.333 213.333z" />
<glyph unicode="&#xe907;" glyph-name="outline-account_circle-24px" d="M512 853.334c-235.52 0-426.667-191.147-426.667-426.667s191.147-426.667 426.667-426.667c235.52 0 426.667 191.147 426.667 426.667s-191.147 426.667-426.667 426.667zM301.653 158.72c18.347 38.4 130.133 75.947 210.347 75.947s192.427-37.547 210.347-75.947c-58.027-46.080-130.987-73.387-210.347-73.387s-152.32 27.307-210.347 73.387zM783.36 220.587c-61.013 74.24-209.067 99.413-271.36 99.413s-210.347-25.173-271.36-99.413c-43.52 57.173-69.973 128.427-69.973 206.080 0 188.16 153.173 341.333 341.333 341.333s341.333-153.173 341.333-341.333c0-77.653-26.453-148.907-69.973-206.080zM512 682.667c-82.773 0-149.333-66.56-149.333-149.333s66.56-149.333 149.333-149.333c82.773 0 149.333 66.56 149.333 149.333s-66.56 149.333-149.333 149.333zM512 469.334c-35.413 0-64 28.587-64 64s28.587 64 64 64c35.413 0 64-28.587 64-64s-28.587-64-64-64z" />
<glyph unicode="&#xe908;" glyph-name="outline-add_a_photo-24px" d="M896 682.667h-135.253l-78.080 85.333h-256v-85.333h218.453l78.080-85.333h172.8v-512h-682.667v384h-85.333v-384c0-46.933 38.4-85.333 85.333-85.333h682.667c46.933 0 85.333 38.4 85.333 85.333v512c0 46.933-38.4 85.333-85.333 85.333zM341.333 341.334c0-117.76 95.573-213.333 213.333-213.333s213.333 95.573 213.333 213.333-95.573 213.333-213.333 213.333-213.333-95.573-213.333-213.333zM554.667 469.334c70.4 0 128-57.6 128-128s-57.6-128-128-128-128 57.6-128 128c0 70.4 57.6 128 128 128zM213.333 682.667h128v85.333h-128v128h-85.333v-128h-128v-85.333h128v-128h85.333z" />
<glyph unicode="&#xe909;" glyph-name="outline-add_circle_outline-24px" d="M554.667 640h-85.333v-170.667h-170.667v-85.333h170.667v-170.667h85.333v170.667h170.667v85.333h-170.667v170.667zM512 853.334c-235.52 0-426.667-191.147-426.667-426.667s191.147-426.667 426.667-426.667 426.667 191.147 426.667 426.667-191.147 426.667-426.667 426.667zM512 85.334c-188.16 0-341.333 153.173-341.333 341.333s153.173 341.333 341.333 341.333 341.333-153.173 341.333-341.333-153.173-341.333-341.333-341.333z" />
<glyph unicode="&#xe90a;" glyph-name="outline-add_location-24px" d="M512 853.334c-164.693 0-298.667-133.973-298.667-298.667 0-224 298.667-554.667 298.667-554.667s298.667 330.667 298.667 554.667c0 164.693-133.973 298.667-298.667 298.667zM298.667 554.667c0 117.76 95.573 213.333 213.333 213.333s213.333-95.573 213.333-213.333c0-122.88-122.88-306.773-213.333-421.547-88.747 113.92-213.333 299.947-213.333 421.547zM554.667 682.667h-85.333v-85.333h-85.333v-85.333h85.333v-85.333h85.333v85.333h85.333v85.333h-85.333z" />
<glyph unicode="&#xe90b;" glyph-name="outline-add_photo_alternate-24px" d="M768 85.334h-597.333v597.333h384v85.333h-384c-46.933 0-85.333-38.4-85.333-85.333v-597.333c0-46.933 38.4-85.333 85.333-85.333h597.333c46.933 0 85.333 38.4 85.333 85.333v384h-85.333v-384zM435.627 220.587l-83.627 100.693-117.333-150.613h469.333l-151.040 200.96zM853.333 768v128h-85.333v-128h-128c0.427-0.427 0-85.333 0-85.333h128v-127.573c0.427-0.427 85.333 0 85.333 0v127.573h128v85.333h-128z" />
<glyph unicode="&#xe90c;" glyph-name="outline-add_shopping_cart-24px" d="M469.333 554.667h85.333v128h128v85.333h-128v128h-85.333v-128h-128v-85.333h128v-128zM298.667 170.667c-46.933 0-84.907-38.4-84.907-85.333s37.973-85.333 84.907-85.333 85.333 38.4 85.333 85.333-38.4 85.333-85.333 85.333zM725.333 170.667c-46.933 0-84.907-38.4-84.907-85.333s37.973-85.333 84.907-85.333 85.333 38.4 85.333 85.333-38.4 85.333-85.333 85.333zM345.6 384h317.867c32 0 60.16 17.493 74.667 43.947l164.693 299.093-74.24 40.96-165.12-298.667h-299.52l-181.76 384h-139.52v-85.333h85.333l153.6-323.84-57.6-104.107c-31.147-57.173 9.813-126.72 74.667-126.72h512v85.333h-512l46.933 85.333z" />
<glyph unicode="&#xe90d;" glyph-name="outline-add-24px" d="M810.667 384h-256v-256h-85.333v256h-256v85.333h256v256h85.333v-256h256v-85.333z" />
<glyph unicode="&#xe90e;" glyph-name="outline-alarm_add-24px" d="M739.691 861.396l196.582-163.994-54.665-65.527-196.582 163.994 54.665 65.527zM284.303 861.423l54.665-65.527-196.582-163.994-54.665 65.527 196.582 163.994zM512 768c-212.053 0-384-171.947-384-384s171.947-384 384-384 384 171.947 384 384c0 212.053-171.947 384-384 384zM512 85.334c-164.693 0-298.667 133.973-298.667 298.667s133.973 298.667 298.667 298.667 298.667-133.973 298.667-298.667-133.973-298.667-298.667-298.667zM554.667 554.667h-85.333v-128h-128v-85.333h128v-128h85.333v128h128v85.333h-128z" />
<glyph unicode="&#xe90f;" glyph-name="outline-alarm_off-24px" d="M428.373 670.294c26.453 7.68 54.613 12.373 83.627 12.373 164.693 0 298.667-133.973 298.667-298.667 0-29.013-4.693-57.173-12.373-83.627l66.56-66.56c20.053 46.080 31.147 96.853 31.147 150.187 0 212.053-171.947 384-384 384-53.333 0-104.107-11.093-150.613-30.72l66.987-66.987zM739.691 861.396l196.582-163.994-54.665-65.527-196.582 163.994 54.665 65.527zM128.853 849.067c0.853 0.853-60.16-60.16-60.16-60.16l58.453-58.453-39.253-32.853 54.613-65.707 45.227 37.547 34.133-34.133c-58.453-67.413-93.867-155.307-93.867-251.307 0-212.053 171.947-384 384-384 96 0 183.893 35.413 251.307 93.867l89.6-89.6 60.16 60.16-784.213 784.64zM512 85.334c-164.693 0-298.667 133.973-298.667 298.667 0 72.533 26.027 139.093 69.12 190.72l420.267-420.267c-51.627-43.093-118.187-69.12-190.72-69.12zM319.147 779.52l19.627 16.213-54.613 65.707-25.6-21.333z" />
<glyph unicode="&#xe910;" glyph-name="outline-alarm_on-24px" d="M449.707 318.72l-90.88 90.88-45.227-45.227 135.68-135.68 256 256-45.227 45.227zM739.691 861.396l196.582-163.994-54.665-65.527-196.582 163.994 54.665 65.527zM284.303 861.423l54.665-65.527-196.582-163.994-54.665 65.527 196.582 163.994zM512 768c-212.053 0-384-171.947-384-384s171.947-384 384-384 384 171.947 384 384c0 212.053-171.947 384-384 384zM512 85.334c-164.693 0-298.667 133.973-298.667 298.667s133.973 298.667 298.667 298.667 298.667-133.973 298.667-298.667-133.973-298.667-298.667-298.667z" />
<glyph unicode="&#xe911;" glyph-name="outline-alarm-24px" d="M533.333 597.334h-64v-256l202.667-121.6 32 52.48-170.667 101.12zM739.691 861.396l196.582-163.994-54.665-65.527-196.582 163.994 54.665 65.527zM284.303 861.423l54.665-65.527-196.582-163.994-54.665 65.527 196.582 163.994zM512 768c-212.053 0-384-171.947-384-384s171.947-384 384-384 384 171.947 384 384c0 212.053-171.947 384-384 384zM512 85.334c-164.693 0-298.667 133.973-298.667 298.667s133.973 298.667 298.667 298.667 298.667-133.973 298.667-298.667-133.973-298.667-298.667-298.667z" />
<glyph unicode="&#xe912;" glyph-name="outline-announcement-24px" d="M853.333 853.334h-682.667c-46.933 0-85.333-38.4-85.333-85.333v-768l170.667 170.667h597.333c46.933 0 85.333 38.4 85.333 85.333v512c0 46.933-38.4 85.333-85.333 85.333zM853.333 256h-632.747l-49.92-49.92v561.92h682.667v-512zM469.333 725.334h85.333v-256h-85.333v256zM469.333 384h85.333v-85.333h-85.333v85.333z" />
<glyph unicode="&#xe913;" glyph-name="outline-archive-24px" d="M876.373 715.52l-59.307 71.68c-11.52 14.507-29.013 23.467-49.067 23.467h-512c-20.053 0-37.547-8.96-49.493-23.467l-58.88-71.68c-12.373-14.507-19.627-33.707-19.627-54.187v-533.333c0-46.933 38.4-85.333 85.333-85.333h597.333c46.933 0 85.333 38.4 85.333 85.333v533.333c0 20.48-7.253 39.68-19.627 54.187zM266.24 725.334h491.52l34.56-41.387h-560.213l34.133 41.387zM213.333 128v469.333h597.333v-469.333h-597.333zM573.867 512h-123.733v-128h-108.8l170.667-170.667 170.667 170.667h-108.8z" />
<glyph unicode="&#xe914;" glyph-name="outline-arrow_drop_down-24px" d="M298.667 512l213.333-213.333 213.333 213.333h-426.667z" />
<glyph unicode="&#xe915;" glyph-name="outline-arrow_drop_up-24px" d="M298.667 341.334l213.333 213.333 213.333-213.333h-426.667z" />
<glyph unicode="&#xe916;" glyph-name="outline-arrow_left-24px" d="M597.333 640l-213.333-213.333 213.333-213.333v426.667z" />
<glyph unicode="&#xe917;" glyph-name="outline-arrow_right-24px" d="M426.667 213.334l213.333 213.333-213.333 213.333v-426.667z" />
<glyph unicode="&#xe918;" glyph-name="outline-assessment-24px" d="M810.667 810.667h-597.333c-46.933 0-85.333-38.4-85.333-85.333v-597.333c0-46.933 38.4-85.333 85.333-85.333h597.333c46.933 0 85.333 38.4 85.333 85.333v597.333c0 46.933-38.4 85.333-85.333 85.333zM810.667 128h-597.333v597.333h597.333v-597.333zM298.667 512h85.333v-298.667h-85.333v298.667zM469.333 640h85.333v-426.667h-85.333v426.667zM640 384h85.333v-170.667h-85.333v170.667z" />
<glyph unicode="&#xe919;" glyph-name="outline-assignment-24px" d="M298.667 298.667h298.667v-85.333h-298.667v85.333zM298.667 469.334h426.667v-85.333h-426.667v85.333zM298.667 640h426.667v-85.333h-426.667v85.333zM810.667 810.667v0h-178.347c-17.92 49.493-64.853 85.333-120.32 85.333s-102.4-35.84-120.32-85.333h-178.347c-5.973 0-11.52-0.427-17.067-1.707-16.64-3.413-31.573-11.947-43.093-23.467-7.68-7.68-14.080-17.067-18.347-27.307-4.267-9.813-6.827-20.907-6.827-32.853v-597.333c0-11.52 2.56-23.040 6.827-33.28s10.667-19.2 18.347-27.307c11.52-11.52 26.453-20.053 43.093-23.467 5.547-0.853 11.093-1.28 17.067-1.28v0h597.333c46.933 0 85.333 38.4 85.333 85.333v597.333c0 46.933-38.4 85.333-85.333 85.333zM512 821.334c17.493 0 32-14.507 32-32s-14.507-32-32-32c-17.493 0-32 14.507-32 32s14.507 32 32 32zM810.667 128h-597.333v597.333h597.333v-597.333z" />
<glyph unicode="&#xe91a;" glyph-name="outline-attach_file-24px" d="M704 682.667v-490.667c0-94.293-76.373-170.667-170.667-170.667s-170.667 76.373-170.667 170.667v533.333c0 58.88 47.787 106.667 106.667 106.667s106.667-47.787 106.667-106.667v-448c0-23.467-19.2-42.667-42.667-42.667s-42.667 19.2-42.667 42.667v405.333h-64v-405.333c0-58.88 47.787-106.667 106.667-106.667s106.667 47.787 106.667 106.667v448c0 94.293-76.373 170.667-170.667 170.667s-170.667-76.373-170.667-170.667v-533.333c0-129.707 104.96-234.667 234.667-234.667s234.667 104.96 234.667 234.667v490.667h-64z" />
<glyph unicode="&#xe91b;" glyph-name="outline-autorenew-24px" d="M512 682.667v-128l170.667 170.667-170.667 170.667v-128c-188.587 0-341.333-152.747-341.333-341.333 0-66.987 19.627-129.28 52.907-181.76l62.293 62.293c-19.2 35.413-29.867 76.373-29.867 119.467 0 141.227 114.773 256 256 256zM800.427 608.427l-62.293-62.293c18.773-35.84 29.867-76.373 29.867-119.467 0-141.227-114.773-256-256-256v128l-170.667-170.667 170.667-170.667v128c188.587 0 341.333 152.747 341.333 341.333 0 66.987-19.627 129.28-52.907 181.76z" />
<glyph unicode="&#xe91c;" glyph-name="outline-battery_charging_full-24px" d="M668.587 768h-71.253v85.333h-170.667v-85.333h-71.253c-31.147 0-56.747-25.6-56.747-56.747v-654.080c0-31.573 25.6-57.173 56.747-57.173h312.747c31.573 0 57.173 25.6 57.173 56.747v654.507c0 31.147-25.6 56.747-56.747 56.747zM469.333 85.334v234.667h-85.333l170.667 320v-234.667h85.333l-170.667-320z" />
<glyph unicode="&#xe91d;" glyph-name="outline-beach_access-24px" d="M896.052 103.713l-60.943-60.943-274.845 274.845 60.943 60.943 274.845-274.845zM559.787 810.667c-110.080 0-220.16-41.813-304.64-125.867 0 0 0 0 0 0s0 0 0 0-0.427-0.427-0.427-0.427c-168.533-168.533-168.533-442.027 0-610.56l610.133 610.56c-84.053 84.053-194.56 126.293-305.067 126.293zM261.973 201.814c-31.573 52.907-48.64 113.493-48.64 177.067 0 39.68 6.827 77.653 19.627 113.92 8.107-81.493 37.973-161.707 88.32-232.107l-59.307-58.88zM383.147 322.987c-57.6 87.467-79.36 192-58.88 291.413 24.747 5.12 49.493 7.68 74.667 7.68 76.8 0 151.467-23.467 216.747-66.56l-232.533-232.533zM445.867 705.707c36.267 12.8 74.24 19.627 113.92 19.627 63.573 0 124.16-17.067 177.067-48.64l-59.307-59.307c-70.4 50.347-150.187 80.213-231.68 88.32z" />
<glyph unicode="&#xe91e;" glyph-name="outline-book-24px" d="M768 853.334h-512c-46.933 0-85.333-38.4-85.333-85.333v-682.667c0-46.933 38.4-85.333 85.333-85.333h512c46.933 0 85.333 38.4 85.333 85.333v682.667c0 46.933-38.4 85.333-85.333 85.333zM384 768h85.333v-213.333l-42.667 32-42.667-32v213.333zM768 85.334h-512v682.667h42.667v-384l128 96 128-96v384h213.333v-682.667z" />
<glyph unicode="&#xe91f;" glyph-name="outline-bookmark_border-24px" d="M725.333 810.667h-426.667c-46.933 0-85.333-38.4-85.333-85.333v-682.667l298.667 128 298.667-128v682.667c0 46.933-38.4 85.333-85.333 85.333zM725.333 170.667l-213.333 93.013-213.333-93.013v554.667h426.667v-554.667z" />
<glyph unicode="&#xe920;" glyph-name="outline-bookmarks-24px" d="M640 640v-553.387l-213.333 91.733-213.333-91.733v553.387h426.667zM810.667 896h-427.093c-46.933 0-84.907-38.4-84.907-85.333h426.667c46.933 0 85.333-38.4 85.333-85.333v-554.667l85.333-42.667v682.667c0 46.933-38.4 85.333-85.333 85.333v0zM640 725.334h-426.667c-46.933 0-85.333-38.4-85.333-85.333v-682.667l298.667 128 298.667-128v682.667c0 46.933-38.4 85.333-85.333 85.333v0z" />
<glyph unicode="&#xe921;" glyph-name="outline-broken_image-24px" d="M810.667 810.667h-597.333c-46.933 0-85.333-38.4-85.333-85.333v-597.333c0-46.933 38.4-85.333 85.333-85.333h597.333c46.933 0 85.333 38.4 85.333 85.333v597.333c0 46.933-38.4 85.333-85.333 85.333zM810.667 128h-597.333v195.413l42.24-42.24 170.667 170.667 170.667-170.667 170.667 170.24 43.093-43.093v-280.32zM810.667 529.494l-43.093 43.093-170.667-171.093-170.667 170.667-170.667-170.667-42.24 42.667v281.173h597.333v-195.84z" />
<glyph unicode="&#xe922;" glyph-name="outline-brush-24px" d="M298.667 256c23.467 0 42.667-19.2 42.667-42.667 0-46.933-38.4-85.333-85.333-85.333-7.253 0-14.080 0.853-21.333 2.133 13.227 23.467 21.333 51.627 21.333 83.2 0 23.467 19.2 42.667 42.667 42.667zM796.587 810.667c-11.093 0-21.76-4.267-30.293-12.373l-382.293-382.293 117.333-117.333 382.293 382.293c16.64 16.64 16.64 43.52 0 60.16l-57.173 57.173c-8.533 8.533-19.2 12.373-29.867 12.373v0zM298.667 341.334c-70.827 0-128-57.173-128-128 0-55.893-49.493-85.333-85.333-85.333 39.253-52.053 106.24-85.333 170.667-85.333 94.293 0 170.667 76.373 170.667 170.667 0 70.827-57.173 128-128 128v0z" />
<glyph unicode="&#xe923;" glyph-name="outline-bug_report-24px" d="M853.333 597.334h-119.893c-19.2 33.28-45.653 61.867-77.653 83.627l69.547 69.547-60.16 60.16-92.587-92.587c-19.627 4.693-39.68 7.253-60.587 7.253s-40.96-2.56-60.16-7.253l-93.013 92.587-60.16-60.16 69.12-69.547c-31.573-21.76-58.027-50.347-77.227-83.627h-119.893v-85.333h89.173c-2.133-14.080-3.84-28.16-3.84-42.667v-42.667h-85.333v-85.333h85.333v-42.667c0-14.507 1.707-28.587 3.84-42.667h-89.173v-85.333h119.893c44.373-76.373 126.72-128 221.44-128s177.067 51.627 221.44 128h119.893v85.333h-89.173c2.133 14.080 3.84 28.16 3.84 42.667v42.667h85.333v85.333h-85.333v42.667c0 14.507-1.707 28.587-3.84 42.667h89.173v85.333zM682.667 426.667v-128c0-9.387-1.28-20.053-2.987-29.867l-4.267-27.733-15.787-27.733c-30.72-52.907-87.040-85.333-147.627-85.333s-116.907 32.853-147.627 85.333l-15.787 27.307-4.267 27.733c-1.707 9.813-2.987 20.48-2.987 30.293v170.667c0 9.813 1.28 20.48 2.987 29.867l4.267 27.733 15.787 27.733c12.8 22.187 30.72 41.387 51.627 55.893l24.32 16.64 31.573 7.68c13.227 3.413 26.88 5.12 40.107 5.12 13.653 0 26.88-1.707 40.533-5.12l29.013-6.827 26.027-17.92c21.333-14.507 38.827-33.28 51.627-55.893l16.213-27.733 4.267-27.733c1.707-9.387 2.987-20.053 2.987-29.44v-42.667zM426.667 341.334h170.667v-85.333h-170.667v85.333zM426.667 512h170.667v-85.333h-170.667v85.333z" />
<glyph unicode="&#xe924;" glyph-name="outline-business_center-24px" d="M853.333 640h-170.667v85.333l-85.333 85.333h-170.667l-85.333-85.333v-85.333h-170.667c-46.933 0-85.333-38.4-85.333-85.333v-213.333c0-32 17.067-58.88 42.667-73.813v-139.52c0-47.36 37.973-85.333 85.333-85.333h597.333c47.36 0 85.333 37.973 85.333 85.333v139.947c25.173 14.933 42.667 42.24 42.667 73.387v213.333c0 46.933-38.4 85.333-85.333 85.333zM426.667 725.334h170.667v-85.333h-170.667v85.333zM170.667 554.667h682.667v-213.333h-213.333v128h-256v-128h-213.333v213.333zM554.667 298.667h-85.333v85.333h85.333v-85.333zM810.667 128h-597.333v128h170.667v-42.667h256v42.667h170.667v-128z" />
<glyph unicode="&#xe925;" glyph-name="outline-business-24px" d="M512 640v170.667h-426.667v-768h853.333v597.333h-426.667zM256 128h-85.333v85.333h85.333v-85.333zM256 298.667h-85.333v85.333h85.333v-85.333zM256 469.334h-85.333v85.333h85.333v-85.333zM256 640h-85.333v85.333h85.333v-85.333zM426.667 128h-85.333v85.333h85.333v-85.333zM426.667 298.667h-85.333v85.333h85.333v-85.333zM426.667 469.334h-85.333v85.333h85.333v-85.333zM426.667 640h-85.333v85.333h85.333v-85.333zM853.333 128h-341.333v85.333h85.333v85.333h-85.333v85.333h85.333v85.333h-85.333v85.333h341.333v-426.667zM768 469.334h-85.333v-85.333h85.333v85.333zM768 298.667h-85.333v-85.333h85.333v85.333z" />
<glyph unicode="&#xe926;" glyph-name="outline-cake-24px" d="M512 682.667c47.36 0 85.333 38.4 85.333 85.333 0 16.213-4.267 31.147-12.373 43.947l-72.96 126.72-72.96-126.72c-8.107-12.8-12.373-27.733-12.373-43.947 0-46.933 38.4-85.333 85.333-85.333zM768 554.667h-213.333v85.333h-85.333v-85.333h-213.333c-70.827 0-128-57.173-128-128v-384c0-23.467 19.2-42.667 42.667-42.667h682.667c23.467 0 42.667 19.2 42.667 42.667v384c0 70.827-57.173 128-128 128zM810.667 85.334h-597.333v128c38.4 0.427 75.093 15.787 102.4 43.093l46.507 45.653 45.653-45.653c55.893-55.893 153.173-55.467 208.64 0l46.080 45.653 45.653-45.653c27.307-27.307 64-42.667 102.4-43.093v-128zM810.667 277.334c-21.76 0.427-42.24 8.533-57.6 24.32l-90.88 90.88-91.307-90.88c-31.573-31.573-86.613-31.573-118.187 0l-90.88 90.88-91.307-90.88c-14.933-15.36-35.413-23.893-57.173-24.32v149.333c0 23.467 19.2 42.667 42.667 42.667h512c23.467 0 42.667-19.2 42.667-42.667v-149.333z" />
<glyph unicode="&#xe927;" glyph-name="outline-check_circle-24px" d="M512 853.334c-235.52 0-426.667-191.147-426.667-426.667s191.147-426.667 426.667-426.667 426.667 191.147 426.667 426.667-191.147 426.667-426.667 426.667zM512 85.334c-188.16 0-341.333 153.173-341.333 341.333s153.173 341.333 341.333 341.333 341.333-153.173 341.333-341.333-153.173-341.333-341.333-341.333zM707.84 615.254l-281.173-281.173-110.507 110.080-60.16-60.16 170.667-170.667 341.333 341.333z" />
<glyph unicode="&#xe928;" glyph-name="outline-check-24px" d="M384 248.747l-177.92 177.92-60.587-60.16 238.507-238.507 512 512-60.16 60.16-451.84-451.413z" />
<glyph unicode="&#xe929;" glyph-name="outline-cloud-24px" d="M512 682.667c111.787 0 208.213-79.36 229.973-189.013l12.8-64 65.28-4.693c66.56-4.267 118.613-60.16 118.613-126.293 0-70.4-57.6-128-128-128h-554.667c-94.293 0-170.667 76.373-170.667 170.667 0 87.467 65.28 160.427 151.893 169.387l45.653 4.693 21.333 40.533c40.533 78.080 119.893 126.72 207.787 126.72zM512 768c-123.307 0-230.4-69.973-283.733-172.373-128.427-13.653-228.267-122.453-228.267-254.293 0-141.227 114.773-256 256-256h554.667c117.76 0 213.333 95.573 213.333 213.333 0 112.64-87.467 203.947-198.4 211.627-29.013 147.2-158.293 257.707-313.6 257.707v0z" />
<glyph unicode="&#xe92a;" glyph-name="outline-code-24px" d="M401.067 230.4l-196.267 196.267 196.267 196.267-59.733 59.733-256-256 256-256 59.733 59.733zM622.933 230.4l196.267 196.267-196.267 196.267 59.733 59.733 256-256-256-256-59.733 59.733z" />
<glyph unicode="&#xe92b;" glyph-name="outline-compare_arrows-24px" d="M384.427 341.334h-299.093v-85.333h299.093v-128l170.24 170.667-170.24 170.667v-128zM639.573 384v128h299.093v85.333h-299.093v128l-170.24-170.667 170.24-170.667z" />
<glyph unicode="&#xe92c;" glyph-name="outline-computer-24px" d="M853.333 170.667c46.933 0 84.907 38.4 84.907 85.333l0.427 426.667c0 46.933-38.4 85.333-85.333 85.333h-682.667c-46.933 0-85.333-38.4-85.333-85.333v-426.667c0-46.933 38.4-85.333 85.333-85.333h-170.667v-85.333h1024v85.333h-170.667zM170.667 682.667h682.667v-426.667h-682.667v426.667z" />
<glyph unicode="&#xe92d;" glyph-name="outline-contact_support-24px" d="M469.333-67.84v153.6c-213.76 11.093-384 188.587-384 404.907 0 223.573 181.76 405.333 405.333 405.333s405.333-181.76 405.333-405.333c0-211.2-146.773-423.68-365.653-529.067l-61.013-29.44zM490.667 810.667c-176.64 0-320-143.36-320-320s143.36-320 320-320h64v-98.133c155.307 98.133 256 259.413 256 418.133 0 176.64-143.36 320-320 320zM448 320h85.333v-85.333h-85.333v85.333zM533.333 384h-85.333c0 138.667 128 128 128 213.333 0 46.933-38.4 85.333-85.333 85.333s-85.333-38.4-85.333-85.333h-85.333c0 94.293 76.373 170.667 170.667 170.667s170.667-76.373 170.667-170.667c0-106.667-128-117.333-128-213.333z" />
<glyph unicode="&#xe92e;" glyph-name="outline-credit_card-24px" d="M853.333 768h-682.667c-47.36 0-84.907-37.973-84.907-85.333l-0.427-512c0-47.36 37.973-85.333 85.333-85.333h682.667c47.36 0 85.333 37.973 85.333 85.333v512c0 47.36-37.973 85.333-85.333 85.333zM853.333 170.667h-682.667v256h682.667v-256zM853.333 597.334h-682.667v85.333h682.667v-85.333z" />
<glyph unicode="&#xe92f;" glyph-name="outline-crop_original-24px" d="M810.667 810.667h-597.333c-46.933 0-85.333-38.4-85.333-85.333v-597.333c0-46.933 38.4-85.333 85.333-85.333h597.333c46.933 0 85.333 38.4 85.333 85.333v597.333c0 46.933-38.4 85.333-85.333 85.333zM810.667 128h-597.333v597.333h597.333v-597.333zM595.627 414.294l-117.333-151.040-83.627 100.693-117.333-150.613h469.333l-151.040 200.96z" />
<glyph unicode="&#xe930;" glyph-name="outline-date_range-24px" d="M298.667 469.334h85.333v-85.333h-85.333v85.333zM896 682.667v-597.333c0-46.933-38.4-85.333-85.333-85.333h-597.333c-47.36 0-85.333 38.4-85.333 85.333l0.427 597.333c0 46.933 37.547 85.333 84.907 85.333h42.667v85.333h85.333v-85.333h341.333v85.333h85.333v-85.333h42.667c46.933 0 85.333-38.4 85.333-85.333zM213.333 597.334v0h597.333v85.333h-597.333v-85.333zM810.667 85.334v426.667h-597.333v-426.667h597.333zM640 384h85.333v85.333h-85.333v-85.333zM469.333 384h85.333v85.333h-85.333v-85.333z" />
<glyph unicode="&#xe931;" glyph-name="outline-delete-24px" d="M682.667 554.667v-426.667h-341.333v426.667h341.333zM618.667 810.667h-213.333l-42.667-42.667h-149.333v-85.333h597.333v85.333h-149.333l-42.667 42.667zM768 640h-512v-512c0-46.933 38.4-85.333 85.333-85.333h341.333c46.933 0 85.333 38.4 85.333 85.333v512z" />
<glyph unicode="&#xe932;" glyph-name="outline-description-24px" d="M341.333 256h341.333v-85.333h-341.333v85.333zM341.333 426.667h341.333v-85.333h-341.333v85.333zM597.333 853.334h-341.333c-46.933 0-85.333-38.4-85.333-85.333v-682.667c0-46.933 37.973-85.333 84.907-85.333h512.427c46.933 0 85.333 38.4 85.333 85.333v512l-256 256zM768 85.334h-512v682.667h298.667v-213.333h213.333v-469.333z" />
<glyph unicode="&#xe933;" glyph-name="outline-desktop_mac-24px" d="M896 853.334h-768c-46.933 0-85.333-38.4-85.333-85.333v-512c0-46.933 38.4-85.333 85.333-85.333h298.667l-85.333-128v-42.667h341.333v42.667l-85.333 128h298.667c46.933 0 85.333 38.4 85.333 85.333v512c0 46.933-38.4 85.333-85.333 85.333zM896 341.334h-768v426.667h768v-426.667z" />
<glyph unicode="&#xe934;" glyph-name="outline-desktop_windows-24px" d="M896 853.334h-768c-46.933 0-85.333-38.4-85.333-85.333v-512c0-46.933 38.4-85.333 85.333-85.333h298.667v-85.333h-85.333v-85.333h341.333v85.333h-85.333v85.333h298.667c46.933 0 85.333 38.4 85.333 85.333v512c0 46.933-38.4 85.333-85.333 85.333zM896 256h-768v512h768v-512z" />
<glyph unicode="&#xe935;" glyph-name="outline-directions_car-24px" d="M807.253 682.24c-8.533 25.173-32.427 43.093-60.587 43.093h-469.333c-28.16 0-51.627-17.92-60.587-43.093l-88.747-255.573v-341.333c0-23.467 19.2-42.667 42.667-42.667h42.667c23.467 0 42.667 19.2 42.667 42.667v42.667h512v-42.667c0-23.467 19.2-42.667 42.667-42.667h42.667c23.467 0 42.667 19.2 42.667 42.667v341.333l-88.747 255.573zM292.267 640h439.040l46.080-132.693h-531.2l46.080 132.693zM810.667 213.334h-597.333v213.333h597.333v-213.333zM384 320c0-35.346-28.654-64-64-64s-64 28.654-64 64c0 35.346 28.654 64 64 64s64-28.654 64-64zM768 320c0-35.346-28.654-64-64-64s-64 28.654-64 64c0 35.346 28.654 64 64 64s64-28.654 64-64z" />
<glyph unicode="&#xe936;" glyph-name="outline-dns-24px" d="M810.667 298.667v-170.667h-597.333v170.667h597.333zM853.333 384h-682.667c-23.467 0-42.667-19.2-42.667-42.667v-256c0-23.467 19.2-42.667 42.667-42.667h682.667c23.467 0 42.667 19.2 42.667 42.667v256c0 23.467-19.2 42.667-42.667 42.667v0zM298.667 149.334c-34.987 0-64 28.587-64 64s29.013 64 64 64 64-28.587 64-64-28.587-64-64-64zM810.667 725.334v-170.667h-597.333v170.667h597.333zM853.333 810.667h-682.667c-23.467 0-42.667-19.2-42.667-42.667v-256c0-23.467 19.2-42.667 42.667-42.667h682.667c23.467 0 42.667 19.2 42.667 42.667v256c0 23.467-19.2 42.667-42.667 42.667v0zM298.667 576c-34.987 0-64 28.587-64 64s29.013 64 64 64 64-29.013 64-64-28.587-64-64-64z" />
<glyph unicode="&#xe937;" glyph-name="outline-drafts-24px" d="M938.24 597.334c0 30.72-15.787 57.6-40.107 72.533l-386.133 226.133-386.133-226.133c-24.32-14.933-40.533-41.813-40.533-72.533v-426.667c0-46.933 38.4-85.333 85.333-85.333h682.667c46.933 0 85.333 38.4 85.333 85.333l-0.427 426.667zM852.907 597.334v0-0.427l-340.907-212.907-341.333 213.333 341.333 199.68 340.907-199.68zM170.667 170.667v326.827l341.333-214.187 340.907 212.907 0.427-325.547h-682.667z" />
<glyph unicode="&#xe938;" glyph-name="outline-email-24px" d="M938.667 682.667c0 46.933-38.4 85.333-85.333 85.333h-682.667c-46.933 0-85.333-38.4-85.333-85.333v-512c0-46.933 38.4-85.333 85.333-85.333h682.667c46.933 0 85.333 38.4 85.333 85.333v512zM853.333 682.667l-341.333-213.333-341.333 213.333h682.667zM853.333 170.667h-682.667v426.667l341.333-213.333 341.333 213.333v-426.667z" />
<glyph unicode="&#xe939;" glyph-name="outline-explore-24px" d="M512 853.334c-235.52 0-426.667-191.147-426.667-426.667s191.147-426.667 426.667-426.667 426.667 191.147 426.667 426.667c0 235.52-191.147 426.667-426.667 426.667zM512 85.334c-188.16 0-341.333 153.173-341.333 341.333s153.173 341.333 341.333 341.333 341.333-153.173 341.333-341.333c0-188.16-153.173-341.333-341.333-341.333zM277.333 192l320.427 148.907 148.907 320.427-320.427-148.907-148.907-320.427zM512 473.6c26.027 0 46.933-20.907 46.933-46.933s-20.907-46.933-46.933-46.933-46.933 20.907-46.933 46.933 20.907 46.933 46.933 46.933z" />
<glyph unicode="&#xe93a;" glyph-name="outline-extension-24px" d="M448 746.667c11.947 0 21.333-9.387 21.333-21.333v-85.333h256v-256h85.333c11.947 0 21.333-9.387 21.333-21.333s-9.387-21.333-21.333-21.333h-85.333v-256h-90.453c-29.013 74.667-101.973 128-186.88 128s-157.867-53.333-186.88-128h-90.453v90.453c74.667 29.013 128 101.973 128 186.88s-52.907 157.867-127.573 186.88l-0.427 90.453h256v85.333c0 11.947 9.387 21.333 21.333 21.333zM448 832c-58.88 0-106.667-47.787-106.667-106.667h-170.667c-46.933 0-84.907-38.4-84.907-85.333v-162.133h12.373c63.573 0 115.2-51.627 115.2-115.2s-51.627-115.2-115.2-115.2h-12.8v-162.133c0-46.933 38.4-85.333 85.333-85.333h162.133v12.8c0 63.573 51.627 115.2 115.2 115.2s115.2-51.627 115.2-115.2v-12.8h162.133c46.933 0 85.333 38.4 85.333 85.333v170.667c58.88 0 106.667 47.787 106.667 106.667s-47.787 106.667-106.667 106.667v170.667c0 46.933-38.4 85.333-85.333 85.333h-170.667c0 58.88-47.787 106.667-106.667 106.667v0z" />
<glyph unicode="&#xe93b;" glyph-name="outline-face-24px" d="M437.333 384c0-29.44-23.893-53.333-53.333-53.333s-53.333 23.893-53.333 53.333 23.893 53.333 53.333 53.333 53.333-23.893 53.333-53.333zM640 437.334c-29.44 0-53.333-23.893-53.333-53.333s23.893-53.333 53.333-53.333 53.333 23.893 53.333 53.333-23.893 53.333-53.333 53.333zM938.667 426.667c0-235.52-191.147-426.667-426.667-426.667s-426.667 191.147-426.667 426.667 191.147 426.667 426.667 426.667 426.667-191.147 426.667-426.667zM454.827 762.88v0c59.733-98.987 168.107-165.547 291.84-165.547 19.627 0 38.827 2.133 57.173 5.12-59.733 98.987-168.107 165.547-291.84 165.547-19.627 0-38.827-2.133-57.173-5.12zM188.587 534.614v0c72.96 41.387 129.28 108.8 156.16 189.44-72.96-41.387-129.28-108.8-156.16-189.44zM853.333 426.667c0 33.28-5.12 65.28-14.080 95.573-29.867-6.4-60.587-10.24-92.587-10.24-133.547 0-252.587 61.44-331.093 157.44-44.8-109.227-133.973-194.987-244.907-236.8 0.427-1.707 0-3.84 0-5.973 0-188.16 153.173-341.333 341.333-341.333s341.333 153.173 341.333 341.333z" />
<glyph unicode="&#xe93c;" glyph-name="outline-favorite_border-24px" d="M704 810.667c-74.24 0-145.493-34.56-192-89.173-46.507 54.613-117.76 89.173-192 89.173-131.413 0-234.667-103.253-234.667-234.667 0-161.28 145.067-292.693 364.8-492.373l61.867-55.893 61.867 56.32c219.733 199.253 364.8 330.667 364.8 491.947 0 131.413-103.253 234.667-234.667 234.667zM516.267 147.2l-4.267-4.267-4.267 4.267c-203.093 183.893-337.067 305.493-337.067 428.8 0 85.333 64 149.333 149.333 149.333 65.707 0 129.707-42.24 152.32-100.693h79.787c22.187 58.453 86.187 100.693 151.893 100.693 85.333 0 149.333-64 149.333-149.333 0-123.307-133.973-244.907-337.067-428.8z" />
<glyph unicode="&#xe93d;" glyph-name="outline-favorite-24px" d="M512 27.734l-61.867 56.32c-219.733 199.253-364.8 330.667-364.8 491.947 0 131.413 103.253 234.667 234.667 234.667 74.24 0 145.493-34.56 192-89.173 46.507 54.613 117.76 89.173 192 89.173 131.413 0 234.667-103.253 234.667-234.667 0-161.28-145.067-292.693-364.8-492.373l-61.867-55.893z" />
<glyph unicode="&#xe93e;" glyph-name="outline-feedback-24px" d="M853.333 853.334h-682.667c-46.933 0-84.907-38.4-84.907-85.333l-0.427-768 170.667 170.667h597.333c46.933 0 85.333 38.4 85.333 85.333v512c0 46.933-38.4 85.333-85.333 85.333zM853.333 256h-632.747l-49.92-49.92v561.92h682.667v-512zM469.333 426.667h85.333v-85.333h-85.333v85.333zM469.333 682.667h85.333v-170.667h-85.333v170.667z" />
<glyph unicode="&#xe93f;" glyph-name="outline-file_copy-24px" d="M682.667 896h-512c-46.933 0-85.333-38.4-85.333-85.333v-597.333h85.333v597.333h512v85.333zM640 725.334h-298.667c-46.933 0-84.907-38.4-84.907-85.333l-0.427-597.333c0-46.933 37.973-85.333 84.907-85.333h469.76c46.933 0 85.333 38.4 85.333 85.333v426.667l-256 256zM341.333 42.667v597.333h256v-213.333h213.333v-384h-469.333z" />
<glyph unicode="&#xe940;" glyph-name="outline-filter_none-24px" d="M128 725.334h-85.333v-682.667c0-46.933 38.4-85.333 85.333-85.333h682.667v85.333h-682.667v682.667zM896 896h-597.333c-46.933 0-85.333-38.4-85.333-85.333v-597.333c0-46.933 38.4-85.333 85.333-85.333h597.333c46.933 0 85.333 38.4 85.333 85.333v597.333c0 46.933-38.4 85.333-85.333 85.333zM896 213.334h-597.333v597.333h597.333v-597.333z" />
<glyph unicode="&#xe941;" glyph-name="outline-find_in_page-24px" d="M597.333 853.334h-341.333c-46.933 0-84.907-38.4-84.907-85.333l-0.427-682.667c0-46.933 37.973-85.333 84.907-85.333h512.427c46.933 0 85.333 38.4 85.333 85.333v512l-256 256zM256 768h298.667l213.333-213.333v-366.080l-78.507 78.507c54.613 82.773 45.653 194.987-27.307 267.947-41.387 41.387-95.573 62.293-150.187 62.293s-108.8-20.907-150.613-62.293c-83.2-83.2-83.2-218.027 0-300.8 41.387-41.387 96-62.293 150.613-62.293 40.96 0 81.92 11.947 117.333 35.413l121.6-122.027h-494.933v682.667zM602.027 294.4c-23.893-23.893-55.893-37.547-90.027-37.547s-66.133 13.227-90.027 37.547c-23.893 23.893-37.547 55.893-37.547 90.027s13.227 66.133 37.547 90.027c23.893 24.32 55.893 37.547 90.027 37.547s66.133-13.227 90.027-37.547c23.893-23.893 37.547-55.893 37.547-90.027s-13.227-66.133-37.547-90.027z" />
<glyph unicode="&#xe942;" glyph-name="outline-fingerprint-24px" d="M759.893 747.947c-3.413 0-6.827 0.853-9.813 2.56-81.92 42.24-152.747 60.16-237.653 60.16-84.48 0-164.693-20.053-237.653-60.16-10.24-5.547-23.040-1.707-29.013 8.533-5.547 10.24-1.707 23.467 8.533 29.013 79.36 43.093 166.4 65.28 258.133 65.28 90.88 0 170.24-20.053 257.28-64.853 10.667-5.547 14.507-18.347 8.96-28.587-3.84-7.68-11.093-11.947-18.773-11.947zM149.333 523.947c-4.267 0-8.533 1.28-12.373 3.84-9.813 6.827-11.947 20.053-5.12 29.867 42.24 59.733 96 106.667 160 139.52 133.973 69.12 305.493 69.547 439.893 0.427 64-32.853 117.76-79.36 160-138.667 6.827-9.387 4.693-23.040-5.12-29.867s-23.040-4.693-29.867 5.12c-38.4 53.76-87.040 96-144.64 125.44-122.453 62.72-279.040 62.72-401.067-0.427-58.027-29.867-106.667-72.533-145.067-126.293-3.413-5.973-9.813-8.96-16.64-8.96zM416 8.96c-5.547 0-11.093 2.133-14.933 6.4-37.12 37.12-57.173 61.013-85.76 112.64-29.44 52.48-44.8 116.48-44.8 185.173 0 126.72 108.373 229.973 241.493 229.973s241.493-103.253 241.493-229.973c0-11.947-9.387-21.333-21.333-21.333s-21.333 9.387-21.333 21.333c0 103.253-89.173 187.307-198.827 187.307s-198.827-84.053-198.827-187.307c0-61.44 13.653-118.187 39.68-164.267 27.307-49.067 46.080-69.973 78.933-103.253 8.107-8.533 8.107-21.76 0-30.293-4.693-4.267-10.24-6.4-15.787-6.4zM721.92 87.894c-50.773 0-95.573 12.8-132.267 37.973-63.573 43.093-101.547 113.067-101.547 187.307 0 11.947 9.387 21.333 21.333 21.333s21.333-9.387 21.333-21.333c0-60.16 30.72-116.907 82.773-151.893 30.293-20.48 65.707-30.293 108.373-30.293 10.24 0 27.307 1.28 44.373 4.267 11.52 2.133 22.613-5.547 24.747-17.493 2.133-11.52-5.547-22.613-17.493-24.747-24.32-4.693-45.653-5.12-51.627-5.12zM636.16-0c-1.707 0-3.84 0.427-5.547 0.853-67.84 18.773-112.213 43.947-158.72 89.6-59.733 59.307-92.587 138.24-92.587 222.72 0 69.12 58.88 125.44 131.413 125.44s131.413-56.32 131.413-125.44c0-45.653 39.68-82.773 88.747-82.773s88.747 37.12 88.747 82.773c0 160.853-138.667 291.413-309.333 291.413-121.173 0-232.107-67.413-282.027-171.947-16.64-34.56-25.173-75.093-25.173-119.467 0-33.28 2.987-85.76 28.587-154.027 4.267-11.093-1.28-23.467-12.373-27.307-11.093-4.267-23.467 1.707-27.307 12.373-20.907 55.893-31.147 111.36-31.147 168.96 0 51.2 9.813 97.707 29.013 138.24 56.747 119.040 182.613 196.267 320.427 196.267 194.133 0 352-149.76 352-334.080 0-69.12-58.88-125.44-131.413-125.44s-131.413 56.32-131.413 125.44c0 45.653-39.68 82.773-88.747 82.773s-88.747-37.12-88.747-82.773c0-72.96 28.16-141.227 79.787-192.427 40.533-40.107 79.36-62.293 139.52-78.933 11.52-2.987 17.92-14.933 14.933-26.027-2.133-9.813-11.093-16.213-20.053-16.213z" />
<glyph unicode="&#xe943;" glyph-name="outline-flight-24px" d="M896 256v85.333l-341.333 213.333v234.667c0 35.413-28.587 64-64 64s-64-28.587-64-64v-234.667l-341.333-213.333v-85.333l341.333 106.667v-234.667l-85.333-64v-64l149.333 42.667 149.333-42.667v64l-85.333 64v234.667l341.333-106.667z" />
<glyph unicode="&#xe944;" glyph-name="outline-flip_to_back-24px" d="M384 640h-85.333v-85.333h85.333v85.333zM384 469.334h-85.333v-85.333h85.333v85.333zM384 810.667c-47.36 0-85.333-38.4-85.333-85.333h85.333v85.333zM554.667 298.667h-85.333v-85.333h85.333v85.333zM810.667 810.667v-85.333h85.333c0 46.933-38.4 85.333-85.333 85.333zM554.667 810.667h-85.333v-85.333h85.333v85.333zM384 213.334v85.333h-85.333c0-46.933 37.973-85.333 85.333-85.333zM810.667 384h85.333v85.333h-85.333v-85.333zM810.667 554.667h85.333v85.333h-85.333v-85.333zM810.667 213.334c46.933 0 85.333 38.4 85.333 85.333h-85.333v-85.333zM213.333 640h-85.333v-512c0-46.933 37.973-85.333 85.333-85.333h512v85.333h-512v512zM640 725.334h85.333v85.333h-85.333v-85.333zM640 213.334h85.333v85.333h-85.333v-85.333z" />
<glyph unicode="&#xe945;" glyph-name="outline-flip_to_front-24px" d="M128 384h85.333v85.333h-85.333v-85.333zM128 213.334h85.333v85.333h-85.333v-85.333zM213.333 42.667v85.333h-85.333c0-46.933 37.973-85.333 85.333-85.333zM128 554.667h85.333v85.333h-85.333v-85.333zM640 42.667h85.333v85.333h-85.333v-85.333zM810.667 810.667h-426.667c-47.36 0-85.333-38.4-85.333-85.333v-426.667c0-46.933 37.973-85.333 85.333-85.333h426.667c46.933 0 85.333 38.4 85.333 85.333v426.667c0 46.933-38.4 85.333-85.333 85.333zM810.667 298.667h-426.667v426.667h426.667v-426.667zM469.333 42.667h85.333v85.333h-85.333v-85.333zM298.667 42.667h85.333v85.333h-85.333v-85.333z" />
<glyph unicode="&#xe946;" glyph-name="outline-folder_shared-24px" d="M853.333 682.667h-341.333l-85.333 85.333h-256c-46.933 0-84.907-38.4-84.907-85.333l-0.427-512c0-46.933 38.4-85.333 85.333-85.333h682.667c46.933 0 85.333 38.4 85.333 85.333v426.667c0 46.933-38.4 85.333-85.333 85.333zM853.333 170.667h-682.667v512h220.587l85.333-85.333h376.747v-426.667zM640 384c46.933 0 85.333 38.4 85.333 85.333s-38.4 85.333-85.333 85.333-85.333-38.4-85.333-85.333c0-46.933 38.4-85.333 85.333-85.333zM469.333 213.334h341.333v42.667c0 56.747-113.92 85.333-170.667 85.333s-170.667-28.587-170.667-85.333v-42.667z" />
<glyph unicode="&#xe947;" glyph-name="outline-folder-24px" d="M391.253 682.667l85.333-85.333h376.747v-426.667h-682.667v512h220.587zM426.667 768h-256c-46.933 0-84.907-38.4-84.907-85.333l-0.427-512c0-46.933 38.4-85.333 85.333-85.333h682.667c46.933 0 85.333 38.4 85.333 85.333v426.667c0 46.933-38.4 85.333-85.333 85.333h-341.333l-85.333 85.333z" />
<glyph unicode="&#xe948;" glyph-name="outline-format_quote-24px" d="M794.453 170.667h-223.573l85.333 170.667h-101.547v341.333h341.333v-308.907l-101.547-203.093zM709.12 256h32.427l69.12 138.24v203.093h-170.667v-170.667h154.453l-85.333-170.667zM367.787 170.667h-223.573l85.333 170.667h-101.547v341.333h341.333v-308.907l-101.547-203.093zM282.453 256h32.427l69.12 138.24v203.093h-170.667v-170.667h154.453l-85.333-170.667z" />
<glyph unicode="&#xe949;" glyph-name="outline-format_shapes-24px" d="M981.333 640v256h-256v-85.333h-426.667v85.333h-256v-256h85.333v-426.667h-85.333v-256h256v85.333h426.667v-85.333h256v256h-85.333v426.667h85.333zM128 810.667h85.333v-85.333h-85.333v85.333zM213.333 42.667h-85.333v85.333h85.333v-85.333zM725.333 128h-426.667v85.333h-85.333v426.667h85.333v85.333h426.667v-85.333h85.333v-426.667h-85.333v-85.333zM896 42.667h-85.333v85.333h85.333v-85.333zM810.667 725.334v85.333h85.333v-85.333h-85.333zM585.813 341.334h-148.907l-31.147-85.333h-69.12l145.067 384h59.733l145.493-384h-69.547l-31.573 85.333zM456.107 395.094h111.36l-55.467 163.413-55.893-163.413z" />
<glyph unicode="&#xe94a;" glyph-name="outline-forum-24px" d="M640 768v-298.667h-419.413l-49.92-49.92v348.587h469.333zM682.667 853.334h-554.667c-23.467 0-42.667-19.2-42.667-42.667v-597.333l170.667 170.667h426.667c23.467 0 42.667 19.2 42.667 42.667v384c0 23.467-19.2 42.667-42.667 42.667v0zM896 682.667h-85.333v-384h-554.667v-85.333c0-23.467 19.2-42.667 42.667-42.667h469.333l170.667-170.667v640c0 23.467-19.2 42.667-42.667 42.667v0z" />
<glyph unicode="&#xe94b;" glyph-name="outline-free_breakfast-24px" d="M170.667 128h682.667v-85.333h-682.667v85.333zM853.333 810.667h-682.667v-426.667c0-94.293 76.373-170.667 170.667-170.667h256c94.293 0 170.667 76.373 170.667 170.667v128h85.333c47.36 0 85.333 38.4 85.333 85.333v128c0 47.36-37.973 85.333-85.333 85.333zM682.667 384c0-46.933-38.4-85.333-85.333-85.333h-256c-46.933 0-85.333 38.4-85.333 85.333v341.333h426.667v-341.333zM853.333 597.334h-85.333v128h85.333v-128z" />
<glyph unicode="&#xe94c;" glyph-name="outline-gps_fixed-24px" d="M512 597.334c-94.293 0-170.667-76.373-170.667-170.667s76.373-170.667 170.667-170.667 170.667 76.373 170.667 170.667-76.373 170.667-170.667 170.667zM893.44 469.334c-19.627 177.92-160.853 319.147-338.773 338.773v87.893h-85.333v-87.893c-177.92-19.627-319.147-160.853-338.773-338.773h-87.893v-85.333h87.893c19.627-177.92 160.853-319.147 338.773-338.773v-87.893h85.333v87.893c177.92 19.627 319.147 160.853 338.773 338.773h87.893v85.333h-87.893zM512 128c-165.12 0-298.667 133.547-298.667 298.667s133.547 298.667 298.667 298.667 298.667-133.547 298.667-298.667-133.547-298.667-298.667-298.667z" />
<glyph unicode="&#xe94d;" glyph-name="outline-group-24px" d="M384 352c-99.84 0-298.667-49.92-298.667-149.333v-74.667h597.333v74.667c0 99.413-198.827 149.333-298.667 149.333zM185.173 213.334c35.84 24.747 122.453 53.333 198.827 53.333s162.987-28.587 198.827-53.333h-397.653zM384 426.667c82.347 0 149.333 66.987 149.333 149.333s-66.987 149.333-149.333 149.333-149.333-66.987-149.333-149.333c0-82.347 66.987-149.333 149.333-149.333zM384 640c35.413 0 64-28.587 64-64s-28.587-64-64-64-64 28.587-64 64 28.587 64 64 64zM684.373 349.44c49.493-35.84 83.627-83.627 83.627-146.773v-74.667h170.667v74.667c0 86.187-149.333 135.253-254.293 146.773zM640 426.667c82.347 0 149.333 66.987 149.333 149.333s-66.987 149.333-149.333 149.333c-23.040 0-44.373-5.547-64-14.933 26.88-37.973 42.667-84.48 42.667-134.4s-15.787-96.427-42.667-134.4c19.627-9.387 40.96-14.933 64-14.933z" />
<glyph unicode="&#xe94e;" glyph-name="outline-help_outline-24px" d="M469.333 170.667h85.333v85.333h-85.333v-85.333zM512 853.334c-235.52 0-426.667-191.147-426.667-426.667s191.147-426.667 426.667-426.667 426.667 191.147 426.667 426.667-191.147 426.667-426.667 426.667zM512 85.334c-188.16 0-341.333 153.173-341.333 341.333s153.173 341.333 341.333 341.333 341.333-153.173 341.333-341.333-153.173-341.333-341.333-341.333zM512 682.667c-94.293 0-170.667-76.373-170.667-170.667h85.333c0 46.933 38.4 85.333 85.333 85.333s85.333-38.4 85.333-85.333c0-85.333-128-74.667-128-213.333h85.333c0 96 128 106.667 128 213.333 0 94.293-76.373 170.667-170.667 170.667z" />
<glyph unicode="&#xe94f;" glyph-name="outline-highlight_off-24px" d="M622.507 597.334l-110.507-110.507-110.507 110.507-60.16-60.16 110.507-110.507-110.507-110.507 60.16-60.16 110.507 110.507 110.507-110.507 60.16 60.16-110.507 110.507 110.507 110.507-60.16 60.16zM512 853.334c-235.947 0-426.667-190.72-426.667-426.667s190.72-426.667 426.667-426.667 426.667 190.72 426.667 426.667-190.72 426.667-426.667 426.667zM512 85.334c-188.16 0-341.333 153.173-341.333 341.333s153.173 341.333 341.333 341.333 341.333-153.173 341.333-341.333-153.173-341.333-341.333-341.333z" />
<glyph unicode="&#xe950;" glyph-name="outline-history-24px" d="M554.667 810.667c-212.053 0-384-171.947-384-384h-128l165.973-165.973 2.987-5.973 172.373 171.947h-128c0 165.12 133.547 298.667 298.667 298.667s298.667-133.547 298.667-298.667-133.547-298.667-298.667-298.667c-82.347 0-157.013 33.707-210.773 87.893l-60.587-60.587c69.547-69.547 165.12-112.64 271.36-112.64 212.053 0 384 171.947 384 384s-171.947 384-384 384zM512 597.334v-213.333l181.333-107.52 32.853 54.613-150.187 89.173v177.067z" />
<glyph unicode="&#xe951;" glyph-name="outline-home-24px" d="M512 695.894l213.333-192v-333.227h-85.333v256h-256v-256h-85.333v333.227l213.333 192zM512 810.667l-426.667-384h128v-341.333h256v256h85.333v-256h256v341.333h128l-426.667 384z" />
<glyph unicode="&#xe952;" glyph-name="outline-hotel-24px" d="M298.667 341.334c70.827 0 128 57.173 128 128s-57.173 128-128 128c-70.827 0-128-57.173-128-128s57.173-128 128-128zM298.667 512c23.467 0 42.667-19.2 42.667-42.667s-19.2-42.667-42.667-42.667-42.667 19.2-42.667 42.667 19.2 42.667 42.667 42.667zM810.667 640h-341.333v-341.333h-341.333v426.667h-85.333v-640h85.333v128h768v-128h85.333v384c0 94.293-76.373 170.667-170.667 170.667zM896 298.667h-341.333v256h256c46.933 0 85.333-38.4 85.333-85.333v-170.667z" />
<glyph unicode="&#xe953;" glyph-name="outline-https-24px" d="M768 597.334h-42.667v85.333c0 117.76-95.573 213.333-213.333 213.333s-213.333-95.573-213.333-213.333v-85.333h-42.667c-46.933 0-85.333-38.4-85.333-85.333v-426.667c0-46.933 38.4-85.333 85.333-85.333h512c46.933 0 85.333 38.4 85.333 85.333v426.667c0 46.933-38.4 85.333-85.333 85.333zM384 682.667c0 70.827 57.173 128 128 128s128-57.173 128-128v-85.333h-256v85.333zM768 85.334h-512v426.667h512v-426.667zM512 213.334c46.933 0 85.333 38.4 85.333 85.333s-38.4 85.333-85.333 85.333c-46.933 0-85.333-38.4-85.333-85.333s38.4-85.333 85.333-85.333z" />
<glyph unicode="&#xe954;" glyph-name="outline-info-24px" d="M469.333 640h85.333v-85.333h-85.333v85.333zM469.333 469.334h85.333v-256h-85.333v256zM512 853.334c-235.52 0-426.667-191.147-426.667-426.667s191.147-426.667 426.667-426.667 426.667 191.147 426.667 426.667c0 235.52-191.147 426.667-426.667 426.667zM512 85.334c-188.16 0-341.333 153.173-341.333 341.333s153.173 341.333 341.333 341.333 341.333-153.173 341.333-341.333c0-188.16-153.173-341.333-341.333-341.333z" />
<glyph unicode="&#xe955;" glyph-name="outline-input-24px" d="M896 810.24h-768c-46.933 0-85.333-38.4-85.333-85.333v-170.24h85.333v171.093h768v-598.613h-768v171.52h-85.333v-171.093c0-46.933 38.4-84.48 85.333-84.48h768c46.933 0 85.333 37.547 85.333 84.48v597.333c0 47.36-38.4 85.333-85.333 85.333zM469.333 256l170.667 170.667-170.667 170.667v-128h-426.667v-85.333h426.667v-128z" />
<glyph unicode="&#xe956;" glyph-name="outline-insert_photo-24px" d="M810.667 725.334v-597.333h-597.333v597.333h597.333zM810.667 810.667h-597.333c-46.933 0-85.333-38.4-85.333-85.333v-597.333c0-46.933 38.4-85.333 85.333-85.333h597.333c46.933 0 85.333 38.4 85.333 85.333v597.333c0 46.933-38.4 85.333-85.333 85.333v0zM603.307 432.64l-128-165.12-91.307 110.507-128-164.693h512l-164.693 219.307z" />
<glyph unicode="&#xe957;" glyph-name="outline-keyboard_arrow_down-24px" d="M316.16 572.16l195.84-195.413 195.84 195.413 60.16-60.16-256-256-256 256 60.16 60.16z" />
<glyph unicode="&#xe958;" glyph-name="outline-keyboard_arrow_left-24px" d="M657.493 230.827l-195.413 195.84 195.413 195.84-60.16 60.16-256-256 256-256 60.16 60.16z" />
<glyph unicode="&#xe959;" glyph-name="outline-keyboard_arrow_right-24px" d="M366.507 230.827l195.413 195.84-195.413 195.84 60.16 60.16 256-256-256-256-60.16 60.16z" />
<glyph unicode="&#xe95a;" glyph-name="outline-keyboard_arrow_up-24px" d="M316.16 281.174l195.84 195.413 195.84-195.413 60.16 60.16-256 256-256-256 60.16-60.16z" />
<glyph unicode="&#xe95b;" glyph-name="outline-language-24px" d="M511.573 853.334c-235.52 0-426.24-191.147-426.24-426.667s190.72-426.667 426.24-426.667c235.947 0 427.093 191.147 427.093 426.667s-191.147 426.667-427.093 426.667zM807.253 597.334h-125.867c-13.653 53.333-33.28 104.533-58.88 151.893 78.507-26.88 143.787-81.493 184.747-151.893zM512 766.294c35.413-51.2 63.147-107.947 81.493-168.96h-162.987c18.347 61.013 46.080 117.76 81.493 168.96zM181.76 341.334c-6.827 27.307-11.093 55.893-11.093 85.333s4.267 58.027 11.093 85.333h144.213c-3.413-28.16-5.973-56.32-5.973-85.333s2.56-57.173 5.973-85.333h-144.213zM216.747 256h125.867c13.653-53.333 33.28-104.533 58.88-151.893-78.507 26.88-143.787 81.067-184.747 151.893zM342.613 597.334h-125.867c40.96 70.827 106.24 125.013 184.747 151.893-25.6-47.36-45.227-98.56-58.88-151.893zM512 87.040c-35.413 51.2-63.147 107.947-81.493 168.96h162.987c-18.347-61.013-46.080-117.76-81.493-168.96zM611.84 341.334h-199.68c-3.84 28.16-6.827 56.32-6.827 85.333s2.987 57.6 6.827 85.333h199.68c3.84-27.733 6.827-56.32 6.827-85.333s-2.987-57.173-6.827-85.333zM622.507 104.107c25.6 47.36 45.227 98.56 58.88 151.893h125.867c-40.96-70.4-106.24-125.013-184.747-151.893zM698.027 341.334c3.413 28.16 5.973 56.32 5.973 85.333s-2.56 57.173-5.973 85.333h144.213c6.827-27.307 11.093-55.893 11.093-85.333s-4.267-58.027-11.093-85.333h-144.213z" />
<glyph unicode="&#xe95c;" glyph-name="outline-launch-24px" d="M810.667 128h-597.333v597.333h298.667v85.333h-298.667c-47.36 0-85.333-38.4-85.333-85.333v-597.333c0-46.933 37.973-85.333 85.333-85.333h597.333c46.933 0 85.333 38.4 85.333 85.333v298.667h-85.333v-298.667zM597.333 810.667v-85.333h153.173l-419.413-419.413 60.16-60.16 419.413 419.413v-153.173h85.333v298.667h-298.667z" />
<glyph unicode="&#xe95d;" glyph-name="outline-layers-24px" d="M511.573 147.627l-314.453 244.48-69.12-53.76 384-298.667 384 298.667-69.547 54.187zM512 256l384 298.667-384 298.667-384-298.667 69.547-54.187 314.453-244.48zM512 745.387l244.907-190.72-244.907-190.72-244.907 190.72 244.907 190.72z" />
<glyph unicode="&#xe95e;" glyph-name="outline-library_add-24px" d="M170.667 682.667h-85.333v-597.333c0-46.933 38.4-85.333 85.333-85.333h597.333v85.333h-597.333v597.333zM853.333 853.334h-512c-46.933 0-85.333-38.4-85.333-85.333v-512c0-46.933 38.4-85.333 85.333-85.333h512c46.933 0 85.333 38.4 85.333 85.333v512c0 46.933-38.4 85.333-85.333 85.333zM853.333 256h-512v512h512v-512zM554.667 341.334h85.333v128h128v85.333h-128v128h-85.333v-128h-128v-85.333h128z" />
<glyph unicode="&#xe95f;" glyph-name="outline-library_books-24px" d="M170.667 682.667h-85.333v-597.333c0-46.933 38.4-85.333 85.333-85.333h597.333v85.333h-597.333v597.333zM853.333 853.334h-512c-46.933 0-85.333-38.4-85.333-85.333v-512c0-46.933 38.4-85.333 85.333-85.333h512c46.933 0 85.333 38.4 85.333 85.333v512c0 46.933-38.4 85.333-85.333 85.333zM853.333 256h-512v512h512v-512zM426.667 554.667h341.333v-85.333h-341.333v85.333zM426.667 426.667h170.667v-85.333h-170.667v85.333zM426.667 682.667h341.333v-85.333h-341.333v85.333z" />
<glyph unicode="&#xe960;" glyph-name="outline-local_atm-24px" d="M469.333 213.334h85.333v42.667h42.667c23.467 0 42.667 19.2 42.667 42.667v128c0 23.467-19.2 42.667-42.667 42.667h-128v42.667h170.667v85.333h-85.333v42.667h-85.333v-42.667h-42.667c-23.467 0-42.667-19.2-42.667-42.667v-128c0-23.467 19.2-42.667 42.667-42.667h128v-42.667h-170.667v-85.333h85.333v-42.667zM853.333 768h-682.667c-47.36 0-84.907-37.973-84.907-85.333l-0.427-512c0-47.36 37.973-85.333 85.333-85.333h682.667c47.36 0 85.333 37.973 85.333 85.333v512c0 47.36-37.973 85.333-85.333 85.333zM853.333 170.667h-682.667v512h682.667v-512z" />
<glyph unicode="&#xe961;" glyph-name="outline-local_offer-24px" d="M913.493 444.587l-384 384c-15.36 15.36-36.693 24.747-60.16 24.747h-298.667c-46.933 0-85.333-38.4-85.333-85.333v-298.667c0-23.467 9.387-44.8 25.173-60.587l384-384c15.36-15.36 36.693-24.747 60.16-24.747s44.8 9.387 60.16 25.173l298.667 298.667c15.787 15.36 25.173 36.693 25.173 60.16s-9.813 45.227-25.173 60.587zM554.667 84.907l-384 384.427v298.667h298.667v0.427l384-384-298.667-299.52zM341.333 661.334c0-35.346-28.654-64-64-64s-64 28.654-64 64c0 35.346 28.654 64 64 64s64-28.654 64-64z" />
<glyph unicode="&#xe962;" glyph-name="outline-location_city-24px" d="M640 469.334v256l-128 128-128-128v-85.333h-256v-597.333h768v426.667h-256zM298.667 128h-85.333v85.333h85.333v-85.333zM298.667 298.667h-85.333v85.333h85.333v-85.333zM298.667 469.334h-85.333v85.333h85.333v-85.333zM554.667 128h-85.333v85.333h85.333v-85.333zM554.667 298.667h-85.333v85.333h85.333v-85.333zM554.667 469.334h-85.333v85.333h85.333v-85.333zM554.667 640h-85.333v85.333h85.333v-85.333zM810.667 128h-85.333v85.333h85.333v-85.333zM810.667 298.667h-85.333v85.333h85.333v-85.333z" />
<glyph unicode="&#xe963;" glyph-name="outline-location_off-24px" d="M512 768c117.76 0 213.333-95.573 213.333-213.333 0-45.227-16.64-98.987-42.667-154.453l63.573-63.573c37.547 74.667 64.427 151.040 64.427 218.027 0 165.12-133.547 298.667-298.667 298.667-78.507 0-149.333-30.293-202.667-79.36l61.013-61.013c37.547 33.707 87.040 55.040 141.653 55.040zM512 661.334c-25.173 0-48.213-8.96-66.56-23.893l149.333-149.333c14.933 18.347 23.893 41.387 23.893 66.56 0 58.88-47.787 106.667-106.667 106.667zM145.493 816.64l-60.16-60.16 135.68-135.68c-4.693-21.333-7.68-43.52-7.68-66.133 0-224 298.667-554.667 298.667-554.667s71.253 78.933 144.213 185.6l142.933-142.933 60.16 60.16-713.813 713.813zM512 133.12c-85.76 110.080-204.8 287.573-212.48 409.173l295.253-295.253c-27.733-41.813-56.747-80.64-82.773-113.92z" />
<glyph unicode="&#xe964;" glyph-name="outline-location_on-24px" d="M512 853.334c-165.12 0-298.667-133.547-298.667-298.667 0-224 298.667-554.667 298.667-554.667s298.667 330.667 298.667 554.667c0 165.12-133.547 298.667-298.667 298.667zM298.667 554.667c0 117.76 95.573 213.333 213.333 213.333s213.333-95.573 213.333-213.333c0-122.88-122.88-306.773-213.333-421.547-88.747 113.92-213.333 299.947-213.333 421.547zM618.667 554.667c0-58.91-47.756-106.667-106.667-106.667s-106.667 47.756-106.667 106.667c0 58.91 47.756 106.667 106.667 106.667s106.667-47.756 106.667-106.667z" />
<glyph unicode="&#xe965;" glyph-name="outline-lock_open-24px" d="M768 597.334h-42.667v85.333c0 117.76-95.573 213.333-213.333 213.333s-213.333-95.573-213.333-213.333v0h85.333c0 70.827 57.173 128 128 128s128-57.173 128-128v-85.333h-384c-46.933 0-85.333-38.4-85.333-85.333v-426.667c0-46.933 38.4-85.333 85.333-85.333h512c46.933 0 85.333 38.4 85.333 85.333v426.667c0 46.933-38.4 85.333-85.333 85.333zM768 85.334h-512v426.667h512v-426.667zM512 213.334c46.933 0 85.333 38.4 85.333 85.333s-38.4 85.333-85.333 85.333c-46.933 0-85.333-38.4-85.333-85.333s38.4-85.333 85.333-85.333z" />
<glyph unicode="&#xe966;" glyph-name="outline-lock-24px" d="M768 597.334h-42.667v85.333c0 117.76-95.573 213.333-213.333 213.333s-213.333-95.573-213.333-213.333v-85.333h-42.667c-46.933 0-85.333-38.4-85.333-85.333v-426.667c0-46.933 38.4-85.333 85.333-85.333h512c46.933 0 85.333 38.4 85.333 85.333v426.667c0 46.933-38.4 85.333-85.333 85.333zM384 682.667c0 70.827 57.173 128 128 128s128-57.173 128-128v-85.333h-256v85.333zM768 85.334h-512v426.667h512v-426.667zM512 213.334c46.933 0 85.333 38.4 85.333 85.333s-38.4 85.333-85.333 85.333c-46.933 0-85.333-38.4-85.333-85.333s38.4-85.333 85.333-85.333z" />
<glyph unicode="&#xe967;" glyph-name="outline-loyalty-24px" d="M913.493 444.587l-384 384c-15.36 15.36-36.693 24.747-60.16 24.747h-298.667c-46.933 0-85.333-38.4-85.333-85.333v-298.667c0-23.467 9.387-44.8 25.173-60.587l384-384c15.36-15.36 36.693-24.747 60.16-24.747s44.8 9.387 60.16 25.173l298.667 298.667c15.787 15.36 25.173 36.693 25.173 60.16s-9.813 45.227-25.173 60.587zM554.667 84.907l-384 384.427v298.667h298.667v0.427l384-384-298.667-299.52zM341.333 661.334c0-35.346-28.654-64-64-64s-64 28.654-64 64c0 35.346 28.654 64 64 64s64-28.654 64-64zM379.733 403.2c0-24.32 9.813-45.653 25.6-61.867l149.333-149.333 149.333 149.333c15.787 15.787 25.6 37.973 25.6 61.867 0 48.213-39.253 87.467-87.467 87.467-24.32 0-46.080-9.813-61.867-25.6l-25.6-25.6-25.6 25.173c-15.787 16.213-37.973 26.027-61.867 26.027-48.213 0-87.467-39.253-87.467-87.467z" />
<glyph unicode="&#xe968;" glyph-name="outline-map-24px" d="M874.667 810.667l-6.827-1.28-227.84-88.32-256 89.6-240.64-81.067c-8.96-2.987-15.36-10.667-15.36-20.48v-645.12c0-11.947 9.387-21.333 21.333-21.333l6.827 1.28 227.84 88.32 256-89.6 240.64 81.067c8.96 2.987 15.36 10.667 15.36 20.48v645.12c0 11.947-9.387 21.333-21.333 21.333zM426.667 705.28l170.667-59.733v-497.493l-170.667 59.733v497.493zM213.333 663.040l128 43.093v-499.2l-128-49.493v505.6zM810.667 190.294l-128-43.093v498.773l128 49.493v-505.173z" />
<glyph unicode="&#xe969;" glyph-name="outline-message-24px-(1)" d="M170.667 768h682.667v-512h-632.747l-49.92-49.92v561.92zM170.667 853.334c-46.933 0-84.907-38.4-84.907-85.333l-0.427-768 170.667 170.667h597.333c46.933 0 85.333 38.4 85.333 85.333v512c0 46.933-38.4 85.333-85.333 85.333h-682.667zM256 426.667h512v-85.333h-512v85.333zM256 554.667h512v-85.333h-512v85.333zM256 682.667h512v-85.333h-512v85.333z" />
<glyph unicode="&#xe96a;" glyph-name="outline-monetization_on-24px" d="M512 853.334c-235.52 0-426.667-191.147-426.667-426.667s191.147-426.667 426.667-426.667c235.52 0 426.667 191.147 426.667 426.667s-191.147 426.667-426.667 426.667zM512 85.334c-188.16 0-341.333 153.173-341.333 341.333s153.173 341.333 341.333 341.333c188.16 0 341.333-153.173 341.333-341.333s-153.173-341.333-341.333-341.333zM525.227 463.36c-75.52 19.2-99.84 40.107-99.84 71.253 0 35.84 33.707 61.013 89.6 61.013 58.88 0 81.067-28.16 82.773-69.973h72.96c-2.133 57.173-37.12 109.653-106.24 126.72v72.96h-99.413v-72.107c-64.427-13.653-116.053-55.467-116.053-119.893 0-76.373 63.573-114.773 156.16-136.96 83.2-19.627 99.84-49.067 99.84-79.787 0-22.613-16.64-59.307-89.6-59.307-68.267 0-95.147 30.72-98.987 69.973h-73.387c4.267-72.533 58.027-113.493 122.027-126.72v-72.533h99.84v71.253c64.853 12.373 116.053 49.493 116.48 118.187-0.427 93.867-81.067 126.293-156.16 145.92z" />
<glyph unicode="&#xe96b;" glyph-name="outline-money-24px" d="M640 256h128c23.467 0 42.667 19.2 42.667 42.667v256c0 23.467-19.2 42.667-42.667 42.667h-128c-23.467 0-42.667-19.2-42.667-42.667v-256c0-23.467 19.2-42.667 42.667-42.667zM682.667 512h42.667v-170.667h-42.667v170.667zM384 256h128c23.467 0 42.667 19.2 42.667 42.667v256c0 23.467-19.2 42.667-42.667 42.667h-128c-23.467 0-42.667-19.2-42.667-42.667v-256c0-23.467 19.2-42.667 42.667-42.667zM426.667 512h42.667v-170.667h-42.667v170.667zM213.333 597.334h85.333v-341.333h-85.333v341.333zM85.333 768v-682.667h853.333v682.667h-853.333zM853.333 170.667h-682.667v512h682.667v-512z" />
<glyph unicode="&#xe96c;" glyph-name="outline-mouse-24px" d="M853.333 554.667c-1.707 187.307-153.6 338.347-341.333 338.347s-339.627-151.040-341.333-338.347v0-256c0-188.587 152.747-341.333 341.333-341.333s341.333 152.747 341.333 341.333v256zM768 554.667h-213.333v249.173c119.893-20.053 211.627-123.733 213.333-249.173zM469.333 803.84v-249.173h-213.333c1.707 125.44 93.44 229.12 213.333 249.173zM768 298.667c0-141.227-114.773-256-256-256s-256 114.773-256 256v170.667h512v-170.667z" />
<glyph unicode="&#xe96d;" glyph-name="outline-movie-24px" d="M170.667 662.614l75.093-150.613h607.573v-341.333h-682.667v491.947zM938.667 768h-170.667l85.333-170.667h-128l-85.333 170.667h-85.333l85.333-170.667h-128l-85.333 170.667h-85.333l85.333-170.667h-128l-85.333 170.667h-42.667c-46.933 0-84.907-38.4-84.907-85.333l-0.427-512c0-46.933 38.4-85.333 85.333-85.333h682.667c46.933 0 85.333 38.4 85.333 85.333v597.333z" />
<glyph unicode="&#xe96e;" glyph-name="outline-my_location-24px" d="M512 597.334c-94.293 0-170.667-76.373-170.667-170.667s76.373-170.667 170.667-170.667 170.667 76.373 170.667 170.667-76.373 170.667-170.667 170.667zM893.44 469.334c-19.627 177.92-160.853 319.147-338.773 338.773v87.893h-85.333v-87.893c-177.92-19.627-319.147-160.853-338.773-338.773h-87.893v-85.333h87.893c19.627-177.92 160.853-319.147 338.773-338.773v-87.893h85.333v87.893c177.92 19.627 319.147 160.853 338.773 338.773h87.893v85.333h-87.893zM512 128c-165.12 0-298.667 133.547-298.667 298.667s133.547 298.667 298.667 298.667 298.667-133.547 298.667-298.667-133.547-298.667-298.667-298.667z" />
<glyph unicode="&#xe96f;" glyph-name="outline-note_add-24px" d="M554.667 469.334h-85.333v-128h-128v-85.333h128v-128h85.333v128h128v85.333h-128zM597.333 853.334h-341.333c-46.933 0-85.333-38.4-85.333-85.333v-682.667c0-46.933 37.973-85.333 84.907-85.333h512.427c46.933 0 85.333 38.4 85.333 85.333v512l-256 256zM768 85.334h-512v682.667h298.667v-213.333h213.333v-469.333z" />
<glyph unicode="&#xe970;" glyph-name="outline-notifications_active-24px" d="M512-0c46.933 0 85.333 38.4 85.333 85.333h-170.667c0-46.933 38.4-85.333 85.333-85.333zM768 256v213.333c0 130.987-69.547 240.64-192 269.653v29.013c0 35.413-28.587 64-64 64s-64-28.587-64-64v-29.013c-122.027-29.013-192-138.24-192-269.653v-213.333l-85.333-85.333v-42.667h682.667v42.667l-85.333 85.333zM682.667 213.334h-341.333v256c0 105.813 64.427 192 170.667 192s170.667-86.187 170.667-192v-256zM323.413 764.587l-61.013 61.013c-102.4-78.080-169.813-198.4-175.787-334.933h85.333c6.4 113.067 64.427 212.053 151.467 273.92zM852.053 490.667h85.333c-6.4 136.533-73.813 256.853-175.787 334.933l-60.587-61.013c86.187-61.867 144.64-160.853 151.040-273.92z" />
<glyph unicode="&#xe971;" glyph-name="outline-notifications_off-24px" d="M512-0c46.933 0 85.333 38.4 85.333 85.333h-170.667c0-46.933 38.4-85.333 85.333-85.333zM512 661.334c106.24 0 170.667-86.187 170.667-192v-4.267l85.333-85.333v89.6c0 130.987-69.547 240.64-192 269.653v29.013c0 35.413-28.587 64-64 64s-64-28.587-64-64v-29.013c-10.24-2.56-20.053-6.4-29.44-9.813l69.973-69.973c7.68 0.853 15.36 2.133 23.467 2.133zM230.827 795.734l-60.16-60.16 119.893-119.893c-22.187-42.667-34.56-92.587-34.56-146.347v-213.333l-85.333-85.333v-42.667h607.573l74.24-74.24 60.16 60.16-681.813 681.813zM682.667 213.334h-341.333v256c0 29.013 5.12 56.32 14.507 81.067l326.827-326.827v-10.24z" />
<glyph unicode="&#xe972;" glyph-name="outline-notifications-24px" d="M512-0c46.933 0 85.333 38.4 85.333 85.333h-170.667c0-46.933 38.4-85.333 85.333-85.333zM768 256v213.333c0 130.987-69.547 240.64-192 269.653v29.013c0 35.413-28.587 64-64 64s-64-28.587-64-64v-29.013c-122.027-29.013-192-138.24-192-269.653v-213.333l-85.333-85.333v-42.667h682.667v42.667l-85.333 85.333zM682.667 213.334h-341.333v256c0 105.813 64.427 192 170.667 192s170.667-86.187 170.667-192v-256z" />
<glyph unicode="&#xe973;" glyph-name="outline-outlined_flag-24px" d="M597.333 682.667l-42.667 85.333h-341.333v-725.333h85.333v298.667h213.333l42.667-85.333h298.667v426.667h-256zM768 341.334h-170.667l-42.667 85.333h-256v256h213.333l42.667-85.333h213.333v-256z" />
<glyph unicode="&#xe974;" glyph-name="outline-person_pin-24px" d="M810.667 853.334h-597.333c-47.36 0-85.333-38.4-85.333-85.333v-597.333c0-46.933 37.973-85.333 85.333-85.333h170.667l128-128 128 128h170.667c46.933 0 85.333 38.4 85.333 85.333v597.333c0 46.933-38.4 85.333-85.333 85.333zM810.667 170.667h-206.080l-92.587-92.587-92.587 92.587h-206.080v597.333h597.333v-597.333zM512 469.334c70.4 0 128 57.6 128 128s-57.6 128-128 128-128-57.6-128-128 57.6-128 128-128zM512 640c23.467 0 42.667-19.2 42.667-42.667s-19.2-42.667-42.667-42.667-42.667 19.2-42.667 42.667 19.2 42.667 42.667 42.667zM768 273.92c0 106.667-169.387 152.747-256 152.747s-256-46.080-256-152.747v-60.587h512v60.587zM361.813 298.667c31.573 21.76 95.147 42.667 150.187 42.667s118.613-20.907 150.187-42.667h-300.373z" />
<glyph unicode="&#xe975;" glyph-name="outline-photo_library-24px" d="M853.333 768v-512h-512v512h512zM853.333 853.334h-512c-46.933 0-85.333-38.4-85.333-85.333v-512c0-46.933 38.4-85.333 85.333-85.333h512c46.933 0 85.333 38.4 85.333 85.333v512c0 46.933-38.4 85.333-85.333 85.333v0zM490.667 440.747l72.107-96.427 105.813 132.267 142.080-177.92h-426.667zM85.333 682.667v-597.333c0-46.933 38.4-85.333 85.333-85.333h597.333v85.333h-597.333v597.333h-85.333z" />
<glyph unicode="&#xe976;" glyph-name="outline-photo_size_select_actual-24px" d="M896 810.667h-768c-42.667 0-85.333-42.667-85.333-85.333v-597.333c0-46.933 38.4-85.333 85.333-85.333h768c42.667 0 85.333 42.667 85.333 85.333v597.333c0 42.667-42.667 85.333-85.333 85.333zM896 131.414c-0.853-1.28-2.56-2.56-3.413-3.413h-764.587v593.92c0.853 0.853 2.56 2.56 3.413 3.413h760.747c1.28-0.853 2.56-2.56 3.413-3.413v-590.507zM469.333 276.907l-106.667 128.427-149.333-192h597.333l-192 256z" />
<glyph unicode="&#xe977;" glyph-name="outline-picture_as_pdf-24px" d="M853.333 853.334h-512c-46.933 0-85.333-38.4-85.333-85.333v-512c0-46.933 38.4-85.333 85.333-85.333h512c46.933 0 85.333 38.4 85.333 85.333v512c0 46.933-38.4 85.333-85.333 85.333zM853.333 256h-512v512h512v-512zM170.667 682.667h-85.333v-597.333c0-46.933 38.4-85.333 85.333-85.333h597.333v85.333h-597.333v597.333zM682.667 426.667v128c0 23.467-19.2 42.667-42.667 42.667h-85.333v-213.333h85.333c23.467 0 42.667 19.2 42.667 42.667zM597.333 554.667h42.667v-128h-42.667v128zM768 469.334h42.667v42.667h-42.667v42.667h42.667v42.667h-85.333v-213.333h42.667zM426.667 469.334h42.667c23.467 0 42.667 19.2 42.667 42.667v42.667c0 23.467-19.2 42.667-42.667 42.667h-85.333v-213.333h42.667v85.333zM426.667 554.667h42.667v-42.667h-42.667v42.667z" />
<glyph unicode="&#xe978;" glyph-name="outline-power_settings_new-24px" d="M554.667 810.667h-85.333v-426.667h85.333v426.667zM760.747 718.080l-60.587-60.587c67.413-54.187 110.507-137.387 110.507-230.827 0-165.12-133.547-298.667-298.667-298.667s-298.667 133.547-298.667 298.667c0 93.44 43.093 176.64 110.080 231.253l-60.16 60.16c-82.773-70.4-135.253-174.507-135.253-291.413 0-212.053 171.947-384 384-384s384 171.947 384 384c0 116.907-52.48 221.013-135.253 291.413z" />
<glyph unicode="&#xe979;" glyph-name="outline-print-24px" d="M810.667 597.334h-42.667v213.333h-512v-213.333h-42.667c-70.827 0-128-57.173-128-128v-256h170.667v-170.667h512v170.667h170.667v256c0 70.827-57.173 128-128 128zM341.333 725.334h341.333v-128h-341.333v128zM682.667 213.334v-85.333h-341.333v170.667h341.333v-85.333zM768 298.667v85.333h-512v-85.333h-85.333v170.667c0 23.467 19.2 42.667 42.667 42.667h597.333c23.467 0 42.667-19.2 42.667-42.667v-170.667h-85.333zM810.667 448c0-23.564-19.103-42.667-42.667-42.667s-42.667 19.103-42.667 42.667c0 23.564 19.103 42.667 42.667 42.667s42.667-19.103 42.667-42.667z" />
<glyph unicode="&#xe97a;" glyph-name="outline-question_answer-24px" d="M640 768v-298.667h-419.413l-49.92-49.92v348.587h469.333zM682.667 853.334h-554.667c-23.467 0-42.667-19.2-42.667-42.667v-597.333l170.667 170.667h426.667c23.467 0 42.667 19.2 42.667 42.667v384c0 23.467-19.2 42.667-42.667 42.667v0zM896 682.667h-85.333v-384h-554.667v-85.333c0-23.467 19.2-42.667 42.667-42.667h469.333l170.667-170.667v640c0 23.467-19.2 42.667-42.667 42.667v0z" />
<glyph unicode="&#xe97b;" glyph-name="outline-rate_review-24px" d="M853.333 853.334h-682.667c-46.933 0-84.907-38.4-84.907-85.333l-0.427-768 170.667 170.667h597.333c46.933 0 85.333 38.4 85.333 85.333v512c0 46.933-38.4 85.333-85.333 85.333zM853.333 256h-632.747l-49.92-49.92v561.92h682.667v-512zM448 341.334h320v85.333h-234.667zM612.693 591.787c8.533 8.533 8.533 21.76 0 30.293l-75.52 75.52c-8.533 8.533-21.76 8.533-30.293 0l-250.88-250.88v-105.387h105.387l251.307 250.453z" />
<glyph unicode="&#xe97c;" glyph-name="outline-redo-24px" d="M785.067 486.4c-78.933 68.693-181.333 110.933-294.4 110.933-198.4 0-366.080-129.28-424.96-308.053l100.693-33.28c44.8 136.107 172.8 234.667 324.267 234.667 83.2 0 159.147-30.72 218.453-80.213l-154.453-154.453h384v384l-153.6-153.6z" />
<glyph unicode="&#xe97d;" glyph-name="outline-reorder-24px" d="M128 298.667h768v85.333h-768v-85.333zM128 128h768v85.333h-768v-85.333zM128 469.334h768v85.333h-768v-85.333zM128 725.334v-85.333h768v85.333h-768z" />
<glyph unicode="&#xe97e;" glyph-name="outline-restaurant-24px" d="M682.667 682.667v-341.333h128v-341.333h85.333v853.333c-117.76 0-213.333-95.573-213.333-170.667zM469.333 554.667h-85.333v298.667h-85.333v-298.667h-85.333v298.667h-85.333v-298.667c0-94.293 76.373-170.667 170.667-170.667v-384h85.333v384c94.293 0 170.667 76.373 170.667 170.667v298.667h-85.333v-298.667z" />
<glyph unicode="&#xe97f;" glyph-name="outline-room-24px" d="M512 853.334c-165.12 0-298.667-133.547-298.667-298.667 0-224 298.667-554.667 298.667-554.667s298.667 330.667 298.667 554.667c0 165.12-133.547 298.667-298.667 298.667zM298.667 554.667c0 117.76 95.573 213.333 213.333 213.333s213.333-95.573 213.333-213.333c0-122.88-122.88-306.773-213.333-421.547-88.747 113.92-213.333 299.947-213.333 421.547zM618.667 554.667c0-58.91-47.756-106.667-106.667-106.667s-106.667 47.756-106.667 106.667c0 58.91 47.756 106.667 106.667 106.667s106.667-47.756 106.667-106.667z" />
<glyph unicode="&#xe980;" glyph-name="outline-save_alt-24px" d="M810.667 426.667v-298.667h-597.333v298.667h-85.333v-298.667c0-46.933 38.4-85.333 85.333-85.333h597.333c46.933 0 85.333 38.4 85.333 85.333v298.667h-85.333zM554.667 398.080l110.507 110.080 60.16-60.16-213.333-213.333-213.333 213.333 60.16 60.16 110.507-110.080v412.587h85.333v-412.587z" />
<glyph unicode="&#xe981;" glyph-name="outline-school-24px" d="M512 810.667l-469.333-256 170.667-93.013v-256l298.667-162.987 298.667 162.987v256l85.333 46.507v-294.827h85.333v341.333l-469.333 256zM802.987 554.667l-290.987-158.72-290.987 158.72 290.987 158.72 290.987-158.72zM725.333 256.427l-213.333-116.48-213.333 116.48v158.72l213.333-116.48 213.333 116.48v-158.72z" />
<glyph unicode="&#xe982;" glyph-name="outline-search-24px" d="M661.333 341.334h-33.707l-11.947 11.52c41.813 48.64 66.987 111.787 66.987 180.48 0 153.173-124.16 277.333-277.333 277.333s-277.333-124.16-277.333-277.333 124.16-277.333 277.333-277.333c68.693 0 131.84 25.173 180.48 66.987l11.52-11.947v-33.707l213.333-212.907 63.573 63.573-212.907 213.333zM405.333 341.334c-106.24 0-192 85.76-192 192s85.76 192 192 192 192-85.76 192-192-85.76-192-192-192z" />
<glyph unicode="&#xe983;" glyph-name="outline-settings_input_component-24px" d="M213.333 853.334c0 23.467-19.2 42.667-42.667 42.667s-42.667-19.2-42.667-42.667v-170.667h-85.333v-426.667c0-55.467 35.84-102.4 85.333-120.32v-178.347h85.333v178.347c49.493 17.92 85.333 64.853 85.333 120.32v426.667h-85.333v170.667zM170.667 213.334v0c-23.467 0-42.667 19.2-42.667 42.667v85.333h85.333v-85.333c0-23.467-19.2-42.667-42.667-42.667zM128 426.667v170.667h85.333v-170.667h-85.333zM554.667 853.334c0 23.467-19.2 42.667-42.667 42.667s-42.667-19.2-42.667-42.667v-170.667h-85.333v-426.667c0-55.467 35.84-102.4 85.333-120.32v-178.347h85.333v178.347c49.493 17.92 85.333 64.853 85.333 120.32v426.667h-85.333v170.667zM512 213.334v0c-23.467 0-42.667 19.2-42.667 42.667v85.333h85.333v-85.333c0-23.467-19.2-42.667-42.667-42.667zM469.333 426.667v170.667h85.333v-170.667h-85.333zM896 682.667v170.667c0 23.467-19.2 42.667-42.667 42.667s-42.667-19.2-42.667-42.667v-170.667h-85.333v-426.667c0-55.467 35.84-102.4 85.333-120.32v-178.347h85.333v178.347c49.493 17.92 85.333 64.853 85.333 120.32v426.667h-85.333zM853.333 213.334v0c-23.467 0-42.667 19.2-42.667 42.667v85.333h85.333v-85.333c0-23.467-19.2-42.667-42.667-42.667zM810.667 426.667v170.667h85.333v-170.667h-85.333z" />
<glyph unicode="&#xe984;" glyph-name="outline-settings-24px" d="M829.013 384.854c1.707 13.653 2.987 27.307 2.987 41.813s-1.28 28.16-2.987 41.813l90.027 70.4c8.107 6.4 10.24 17.92 5.12 27.307l-85.333 147.627c-3.84 6.827-11.093 10.667-18.773 10.667-2.56 0-5.12-0.427-7.253-1.28l-106.24-42.667c-22.187 17.067-46.080 31.147-72.107 41.813l-16.213 113.067c-1.28 10.24-10.24 17.92-20.907 17.92h-170.667c-10.667 0-19.627-7.68-20.907-17.92l-16.213-113.067c-26.027-10.667-49.92-25.173-72.107-41.813l-106.24 42.667c-2.56 0.853-5.12 1.28-7.68 1.28-7.253 0-14.507-3.84-18.347-10.667l-85.333-147.627c-5.547-9.387-2.987-20.907 5.12-27.307l90.027-70.4c-1.707-13.653-2.987-27.733-2.987-41.813s1.28-28.16 2.987-41.813l-90.027-70.4c-8.107-6.4-10.24-17.92-5.12-27.307l85.333-147.627c3.84-6.827 11.093-10.667 18.773-10.667 2.56 0 5.12 0.427 7.253 1.28l106.24 42.667c22.187-17.067 46.080-31.147 72.107-41.813l16.213-113.067c1.28-10.24 10.24-17.92 20.907-17.92h170.667c10.667 0 19.627 7.68 20.907 17.92l16.213 113.067c26.027 10.667 49.92 25.173 72.107 41.813l106.24-42.667c2.56-0.853 5.12-1.28 7.68-1.28 7.253 0 14.507 3.84 18.347 10.667l85.333 147.627c5.12 9.387 2.987 20.907-5.12 27.307l-90.027 70.4zM744.533 457.814c1.707-13.227 2.133-22.187 2.133-31.147s-0.853-18.347-2.133-31.147l-5.973-48.213 37.973-29.867 46.080-35.84-29.867-51.627-54.187 21.76-44.373 17.92-38.4-29.013c-18.347-13.653-35.84-23.893-53.333-31.147l-45.227-18.347-6.827-48.213-8.533-57.6h-59.733l-8.107 57.6-6.827 48.213-45.227 18.347c-18.347 7.68-35.413 17.493-52.48 30.293l-38.827 29.867-45.227-18.347-54.187-21.76-29.867 51.627 46.080 35.84 37.973 29.867-5.973 48.213c-1.28 13.227-2.133 23.040-2.133 31.573s0.853 18.347 2.133 31.147l5.973 48.213-37.973 29.867-46.080 35.84 29.867 51.627 54.187-21.76 44.373-17.92 38.4 29.013c18.347 13.653 35.84 23.893 53.333 31.147l45.227 18.347 6.827 48.213 8.533 57.6h59.307l8.107-57.6 6.827-48.213 45.227-18.347c18.347-7.68 35.413-17.493 52.48-30.293l38.827-29.867 45.227 18.347 54.187 21.76 29.867-51.627-45.653-36.267-37.973-29.867 5.973-48.213zM512 597.334c-94.293 0-170.667-76.373-170.667-170.667s76.373-170.667 170.667-170.667 170.667 76.373 170.667 170.667-76.373 170.667-170.667 170.667zM512 341.334c-46.933 0-85.333 38.4-85.333 85.333s38.4 85.333 85.333 85.333 85.333-38.4 85.333-85.333-38.4-85.333-85.333-85.333z" />
<glyph unicode="&#xe985;" glyph-name="outline-shopping_cart-24px" d="M663.467 384c32 0 60.16 17.493 74.667 43.947l152.747 276.907c15.787 28.16-4.693 63.147-37.12 63.147h-631.467l-40.107 85.333h-139.52v-85.333h85.333l153.6-323.84-57.6-104.107c-31.147-57.173 9.813-126.72 74.667-126.72h512v85.333h-512l46.933 85.333h317.867zM262.827 682.667h518.4l-117.76-213.333h-299.52l-101.12 213.333zM298.667 170.667c-46.933 0-84.907-38.4-84.907-85.333s37.973-85.333 84.907-85.333c46.933 0 85.333 38.4 85.333 85.333s-38.4 85.333-85.333 85.333zM725.333 170.667c-46.933 0-84.907-38.4-84.907-85.333s37.973-85.333 84.907-85.333c46.933 0 85.333 38.4 85.333 85.333s-38.4 85.333-85.333 85.333z" />
<glyph unicode="&#xe986;" glyph-name="outline-speaker_notes-24px" d="M853.333 853.334h-682.667c-46.933 0-84.907-38.4-84.907-85.333l-0.427-768 170.667 170.667h597.333c46.933 0 85.333 38.4 85.333 85.333v512c0 46.933-38.4 85.333-85.333 85.333zM853.333 256h-632.747l-49.92-49.92v561.92h682.667v-512zM256 426.667h85.333v-85.333h-85.333v85.333zM256 554.667h85.333v-85.333h-85.333v85.333zM256 682.667h85.333v-85.333h-85.333v85.333zM426.667 426.667h213.333v-85.333h-213.333v85.333zM426.667 554.667h341.333v-85.333h-341.333v85.333zM426.667 682.667h341.333v-85.333h-341.333v85.333z" />
<glyph unicode="&#xe987;" glyph-name="outline-star_border-24px" d="M938.667 544.427l-306.773 26.453-119.893 282.453-119.893-282.88-306.773-26.027 232.96-201.813-69.973-299.947 263.68 159.147 263.68-159.147-69.547 299.947 232.533 201.813zM512 281.6l-160.427-96.853 42.667 182.613-141.653 122.88 186.88 16.213 72.533 171.947 72.96-172.373 186.88-16.213-141.653-122.88 42.667-182.613-160.853 97.28z" />
<glyph unicode="&#xe988;" glyph-name="outline-star-24px" d="M512 201.814l263.68-159.147-69.973 299.947 232.96 201.813-306.773 26.027-119.893 282.88-119.893-282.88-306.773-26.027 232.96-201.813-69.973-299.947 263.68 159.147z" />
<glyph unicode="&#xe989;" glyph-name="outline-supervisor_account-24px" d="M384 426.667c82.347 0 149.333 66.987 149.333 149.333s-66.987 149.333-149.333 149.333-149.333-66.987-149.333-149.333 66.987-149.333 149.333-149.333zM384 640c35.413 0 64-28.587 64-64s-28.587-64-64-64-64 28.587-64 64 28.587 64 64 64zM386.133 213.334h-182.613c42.24 21.333 115.2 42.667 180.48 42.667 4.693 0 9.813-0.427 14.507-0.427 14.507 31.147 39.68 56.747 69.973 77.227-31.147 5.547-60.587 8.533-84.48 8.533-99.84 0-298.667-49.92-298.667-149.333v-64h298.667v64c0 7.253 0.853 14.507 2.133 21.333zM704 320c-78.507 0-234.667-43.093-234.667-128v-64h469.333v64c0 84.907-156.16 128-234.667 128zM755.627 397.654c32.427 18.347 55.040 52.907 55.040 93.013 0 58.88-47.787 106.667-106.667 106.667s-106.667-47.787-106.667-106.667c0-40.107 22.613-74.667 55.040-93.013 15.36-8.533 32.853-13.653 51.627-13.653s36.267 5.12 51.627 13.653z" />
<glyph unicode="&#xe98a;" glyph-name="outline-text_fields-24px" d="M106.667 768v-128h213.333v-512h128v512h213.333v128h-554.667zM917.333 554.667h-384v-128h128v-298.667h128v298.667h128v128z" />
<glyph unicode="&#xe98b;" glyph-name="outline-textsms-24px" d="M853.333 853.334h-682.667c-46.933 0-85.333-38.4-85.333-85.333v-768l170.667 170.667h597.333c46.933 0 85.333 38.4 85.333 85.333v512c0 46.933-38.4 85.333-85.333 85.333zM853.333 256h-597.333l-85.333-85.333v597.333h682.667v-512zM298.667 554.667h85.333v-85.333h-85.333v85.333zM469.333 554.667h85.333v-85.333h-85.333v85.333zM640 554.667h85.333v-85.333h-85.333v85.333z" />
<glyph unicode="&#xe98c;" glyph-name="outline-thumb_down-24px" d="M640 810.667h-384c-35.413 0-65.707-21.333-78.507-52.053l-128.853-300.8c-3.84-9.813-5.973-20.053-5.973-31.147v-85.333c0-46.933 38.4-85.333 85.333-85.333h269.227l-40.533-194.987-1.28-13.653c0-17.493 7.253-33.707 18.773-45.227l45.227-44.8 281.173 281.173c15.36 15.36 24.747 36.693 24.747 60.16v426.667c0 46.933-38.4 85.333-85.333 85.333zM640 298.667l-185.173-185.173 57.173 227.84h-384v85.333l128 298.667h384v-426.667zM810.667 810.667h170.667v-512h-170.667v512z" />
<glyph unicode="&#xe98d;" glyph-name="outline-thumb_up-24px" d="M384 42.667h384c35.413 0 65.707 21.333 78.507 52.053l128.853 300.8c3.84 9.813 5.973 20.053 5.973 31.147v85.333c0 46.933-38.4 85.333-85.333 85.333h-269.227l40.533 194.987 1.28 13.653c0 17.493-7.253 33.707-18.773 45.227l-45.227 44.8-281.173-281.173c-15.36-15.36-24.747-36.693-24.747-60.16v-426.667c0-46.933 38.4-85.333 85.333-85.333zM384 554.667l185.173 185.173-57.173-227.84h384v-85.333l-128-298.667h-384v426.667zM42.667 554.667h170.667v-512h-170.667v512z" />
<glyph unicode="&#xe98e;" glyph-name="outline-undo-24px" d="M533.333 597.334c-113.067 0-215.467-42.24-294.4-110.933l-153.6 153.6v-384h384l-154.453 154.453c59.307 49.493 134.827 80.213 218.453 80.213 151.040 0 279.467-98.56 324.267-234.667l101.12 33.28c-59.307 178.773-226.987 308.053-425.387 308.053z" />
<glyph unicode="&#xe98f;" glyph-name="outline-visibility-24px" d="M512 682.667c161.707 0 305.92-90.88 376.32-234.667-70.4-143.787-214.613-234.667-376.32-234.667s-305.92 90.88-376.32 234.667c70.4 143.787 214.613 234.667 376.32 234.667zM512 768c-213.333 0-395.52-132.693-469.333-320 73.813-187.307 256-320 469.333-320s395.52 132.693 469.333 320c-73.813 187.307-256 320-469.333 320v0zM512 554.667c58.88 0 106.667-47.787 106.667-106.667s-47.787-106.667-106.667-106.667-106.667 47.787-106.667 106.667 47.787 106.667 106.667 106.667zM512 640c-105.813 0-192-86.187-192-192s86.187-192 192-192 192 86.187 192 192-86.187 192-192 192v0z" />
<glyph unicode="&#xe990;" glyph-name="outline-watch-24px" d="M610.56 853.334l17.493-105.813c-36.267 13.227-75.093 20.48-116.053 20.48-40.533 0-79.787-7.253-115.627-20.053l17.493 105.387h196.693zM628.053 105.814l-17.493-105.813h-196.693l-17.493 105.387c35.84-12.8 75.093-20.053 115.627-20.053 40.96 0 79.787 7.253 116.053 20.48zM682.667 938.667h-341.333l-40.533-244.48c-79.36-62.293-130.133-158.72-130.133-267.52s50.773-205.227 130.133-267.52l40.533-244.48h341.333l40.96 244.48c78.933 62.293 129.707 159.147 129.707 267.52s-50.773 205.227-129.707 267.52l-40.96 244.48zM512 170.667c-141.227 0-256 114.773-256 256s114.773 256 256 256 256-114.773 256-256-114.773-256-256-256v0z" />
<glyph unicode="&#xe991;" glyph-name="outline-wb_incandescent-24px" d="M151.467 124.16l60.16-60.16 76.373 76.8-60.16 60.16zM469.333 85.334h85.333v-128h-85.333v128zM42.667 469.334h128v-85.333h-128v85.333zM554.667 765.867v-168.96l42.667-24.747c52.907-30.72 85.333-87.040 85.333-147.627 0-94.293-76.373-170.667-170.667-170.667s-170.667 76.373-170.667 170.667c0 60.587 32.853 116.907 85.333 147.627l42.667 24.747v168.96h85.333zM640 851.2h-256v-205.227c-76.373-44.373-128-126.72-128-221.44 0-141.227 114.773-256 256-256s256 114.773 256 256c0 94.72-51.627 177.067-128 221.44v205.227zM853.333 469.334h128v-85.333h-128v85.333zM735.573 140.374l76.373-76.8 60.16 60.16-76.8 76.373z" />
<glyph unicode="&#xe992;" glyph-name="outline-where_to_vote-24px" d="M512 896c-188.16 0-341.333-153.173-341.333-341.333 0-237.653 296.96-569.173 309.76-583.253l31.573-34.987 31.573 34.987c12.8 14.080 309.76 345.6 309.76 583.253 0 188.16-153.173 341.333-341.333 341.333zM512 65.28c-93.013 111.36-256 338.347-256 489.387 0 141.227 114.773 256 256 256s256-114.773 256-256c0-163.413-181.333-399.36-256-489.387zM446.72 462.080l-75.093 75.52-60.587-60.587 135.68-135.68 256.427 256.427-60.16 60.587z" />
<glyph unicode="&#xe993;" glyph-name="outline-arrow_back-24px" d="M853.333 469.334h-519.253l238.507 238.507-60.587 60.16-341.333-341.333 341.333-341.333 60.16 60.16-238.080 238.507h519.253v85.333z" />
<glyph unicode="&#xe994;" glyph-name="outline-arrow_forward-24px" d="M512 768l-60.16-60.16 238.080-238.507h-519.253v-85.333h519.253l-238.080-238.507 60.16-60.16 341.333 341.333-341.333 341.333z" />
<glyph unicode="&#xe995;" glyph-name="outline-arrow_right_alt-24px" d="M683.093 469.334h-512.427v-85.333h512.427v-128l170.24 170.667-170.24 170.667v-128z" />
<glyph unicode="&#xe996;" glyph-name="outline-gavel-24px" d="M42.667 42.667h512v-85.333h-512v85.333zM223.573 594.347l120.747 120.747 603.307-603.307-120.747-120.747-603.307 603.307zM525.653 896l241.493-241.493-120.747-120.747-241.493 241.493 120.747 120.747zM163.413 534.187l241.493-241.493-120.747-120.747-241.493 241.493 120.747 120.747z" />
<glyph unicode="&#xe997;" glyph-name="outline-dashboard-24px" d="M810.667 725.334v-85.333h-170.667v85.333h170.667zM384 725.334v-256h-170.667v256h170.667zM810.667 384v-256h-170.667v256h170.667zM384 213.334v-85.333h-170.667v85.333h170.667zM896 810.667h-341.333v-256h341.333v256zM469.333 810.667h-341.333v-426.667h341.333v426.667zM896 469.334h-341.333v-426.667h341.333v426.667zM469.333 298.667h-341.333v-256h341.333v256z" />
</font>
</defs>
</svg>
